Адмирал: Битва за Мён Рян (Ревущие потоки / Ревущие течения) / Roaring Currents / Myeong ryang - Huiori Bada (Ким Хан Мин (Kim Han Min / 김한민)) [2014, Южная Корея, экшн, костюмированная драма, история, военный, WEBRip] (VO GREEN TEA)

Ответить на тему
 

bbk ®

Стаж: 6 лет 11 месяцев

Сообщений: 435

Симпатии: 479

Адмирал: Битва за Мён Рян (Ревущие потоки / Ревущие течения)Roaring Currents / Myeong ryang - Huiori Bada- Страна: Южная Корея
Жанр: экшн, костюмированная драма, история, военный
Год выпуска: 2014
Продолжительность: 02:08:32-Перевод: Одноголосый (закадровый) [GREEN TEA]: Дмитрий Познанский-Режиссер: Ким Хан Мин (Kim Han Min / 김한민)-В ролях: Чхве Мин Сик (Choi Min Sik / 최민식) - Admiral Yi Sun Shin
Рю Сын Рён (Ryu Seung Ryong / 류승룡) - Admiral Gurujima
Чжо Джин Ун (Jo Jin Woong / 조진웅) - Wakizaka
Джин Гу (Jin Goo / 진구) - Im Joon Young
Ли Чжон Хён (Lee Jung Hyun / 이정현) - Jung's wife
и др.--Описание: Фильм рассказывает об известной битве за Мён Рян, состоявшейся в 1597 году во время японского вторжения в Корею. Тогда культовому адмиралу Ли Сунсину удалось уничтожить 133 японских боевых корабля и около 200 вспомогательных судов, имея флот всего в 13 кораблей и переменить ход войны.
Немного предыстории.
Весной 1592 года японский полководец Тоётоми Хидэёси высадился на территории Корейского полуострова. У себя дома Хидэёси объединил страну и поставил точку в гражданской войне; теперь ему было необходимо срочно занять десятки тысяч попивших кровушки самураев удачной заграничной кампанией. Корейское королевство Чосон являлись на тот момент вассалами Китая, поэтому корейцам было предложено отказаться от сопротивления и пропустить японские войска через свои территории без боя.
Понимая, что грабежей и мародерства не избежать, корейцы отказались и были разбиты за пару недель. А вот масштабного столкновения китайцев и японцев так и не состоялось. В течении нескольких лет стороны вели дипломатические переговоры, докладывая в генштаб о том, что враг побежден, но реальных результатов это не приносило.
В 1597 году, когда Хидэёси вдруг понял: китайцы уверены, сдаваться должен он, а не они, сёгун вспылил и объявил вторую военную кампанию. Про Китай он на тот момент уже забыл, главной целью полководца стало окончательное покорение Корейского полуострова. 140 000 самураев на 200 кораблях под началом молодого сегунского племянника Кобаякавы высадились на южном побережье и вступили в затяжную военную кампанию. 27 августа 1597 года корейский флот оказался полностью уничтожен в битве при Чхильчонняне. Корейский адмирал погиб, спаслись только тринадцать 20-пушечных кораблей-пханосоксонов, которые успешно бежали с поля боя.
И, вот здесь в историю вступает исторический персонаж, которого в фильме играет Чхве Мин-Сик. Великий флотоводец Ли Сунсин, не проигравший за свою жизнь ни единой битвы (выиграл, кстати, 23). Точнее будет сказать, что вступил он в военные действия достаточно давно. Ли Сунсин — выходец из опального армейского рода — показал себя талантливым стратегом и харизматичным лидером во время первой японо-корейской кампании, поэтому злопыхатели добились смещения успешного командира с поста адмирала и заключения его в тюрьму. Когда корейский флот остался без… флота, Ли Сунсина выпустили из застенков и снова назначили главным.
26 октября 1597 года в битве при Мёнрян 13 оставшихся корейских пханоксона на голову разбили японский флот, состоящий из 133 боевых кораблей и около 200 вспомогательных судов.-- 
Качество видео: WEBRip
Формат видео: AVI
Видео: XviD, 720х304, 1420 Кбит/с, 23.976 fps
Аудио: MP3, 48 kHz, 192 Кбит/c, 2 канала

MediaInfo

General
    Complete name : [GREEN TEA] Адмирал 360p.avi
    Format : AVI
    Format/Info : Audio Video Interleave
    File size : 1.46 GiB
    Duration : 2h 8mn
    Overall bit rate : 1 622 Kbps
    Writing application : VirtualDubMod 1.5.10.2 (build 2540/release)
    Writing library : VirtualDubMod build 2540/release
  Video #0
    ID : 0
    Format : MPEG-4 Visual
    Format profile : Advanced [email protected]
    Format settings, BVOP : 2
    Format settings, QPel : No
    Format settings, GMC : No warppoints
    Format settings, Matrix : Default (MPEG)
    Codec ID : XVID
    Codec ID/Hint : XviD
    Duration : 2h 8mn
    Bit rate : 1 420 Kbps
    Width : 720 pixels
    Height : 304 pixels
    Display aspect ratio : 2.35:1
    Frame rate : 23.976 fps
    Color space : YUV
    Chroma subsampling : 4:2:0
    Bit depth : 8 bits
    Scan type : Progressive
    Compression mode : Lossy
    Bits/(Pixel*Frame) : 0.271
    Stream size : 1.28 GiB (88%)
    Writing library : XviD 1.2.1 (UTC 2008-12-04)
  Audio #1
    ID : 1
    Format : MPEG Audio
    Format version : Version 1
    Format profile : Layer 3
    Mode : Joint stereo
    Codec ID : 55
    Codec ID/Hint : MP3
    Duration : 2h 8mn
    Bit rate mode : Constant
    Bit rate : 192 Kbps
    Channel(s) : 2 channels
    Sampling rate : 48.0 KHz
    Compression mode : Lossy
    Stream size : 177 MiB (12%)
    Alignment : Aligned on interleaves
    Interleave, duration : 42 ms (1.00 video frame)
    Interleave, preload duration : 504 ms

Скриншот c названием фильма

Скриншоты

Создавать темы 14-Мар-2015 00:55

[Профиль]  [ЛС] 
Показать сообщения:    
Ответить на тему

Текущее время: 17-Окт 18:28

Часовой пояс: UTC + 5



Вы не можете начинать темы
Вы не можете отвечать на сообщения
Вы не можете редактировать свои сообщения
Вы не можете удалять свои сообщения
Вы не можете голосовать в опросах
Вы не можете прикреплять файлы к сообщениям
Вы не можете скачивать файлы