Чем дальше в лес... / Into the Woods (Роб Маршалл / Rob Marshall) [2014, США, Мюзикл, фэнтези, комедия, семейный, HDRip] (Dub : [Чистый звук] Официальный)

Ответить на тему
 

SNation ®

Стаж: 4 года 7 месяцев

Сообщений: 81

Симпатии: 70

Чем дальше в лес... / Into the Woods-«Бойтесь своих желаний»- Страна: США
Жанр: Мюзикл, фэнтези, комедия, семейный
Год выпуска: 2014
Продолжительность: 02:04:00
Перевод: Профессиональный (дублированный) Доп. инфо о переводе [Чистый звук] Официальный
Cубтитры: Отдельным файлом Русские (Full, Forced)
Режиссер: Роб Маршалл / Rob Marshall
В ролях: Мэрил Стрип, Эмили Блант, Джеймс Корден, Анна Кендрик, Крис Пайн, Джонни Депп, Дэниэл Хаттлстоун, Кристин Барански, Тэмми Бланчард, Люси Панч
Описание: Золушка мечтает попасть на бал, Пекарь, когда-то проклятый Ведьмой, и его Жена горюют о том, что у них нет ребенка, Джек хочет, чтобы его корова Беляночка наконец-то дала молоко, его Мать мечтает быть богатой, а Красной Шапочке очень нужен каравай хлеба — гостинец для Бабушки, которая живет в лесу… и, может быть, немного сластей для себя лично.
Наконец, Ведьма, живущая по соседству с Пекарем, мечтает вернуть себе молодость и красоту, которые она утратила по несчастному стечению обстоятельств. Для этого она предлагает Пекарю в обмен на снятие проклятия помочь ей и добыть необходимые составляющие для волшебного напитка: корову, белую, как молоко, плащ, красный как кровь, прядь волос, желтых, как кукуруза, и золотые туфельки…- -Качество видео: HDRip
Формат видео: AVI
Видео: XviD, 1963 Кбит/с, 720x304, 23,976 fps
Аудио: AC3, 2 ch, 48,0 КГц, 384 Кбит/с

MediaInfo

General
Complete name                            : D:\Chem.D4lsh3.v.L3s.2014.D.HDRip.2100MB\Chem.D4lsh3.v.L3s.2014.D.HDRip.2100MB.avi
Format                                   : AVI
Format/Info                              : Audio Video Interleave
File size                                : 2.05 GiB
Duration                                 : 2h 4mn
Overall bit rate                         : 2 356 Kbps
Writing application                      : VirtualDubMod 1.5.10.2 (build 2540/release)
Writing library                          : VirtualDubMod build 2540/release
Video
ID                                       : 0
Format                                   : MPEG-4 Visual
Format profile                           : Advanced [email protected]
Format settings, BVOP                    : 2
Format settings, QPel                    : No
Format settings, GMC                     : No warppoints
Format settings, Matrix                  : Default (MPEG)
Codec ID                                 : XVID
Codec ID/Hint                            : XviD
Duration                                 : 2h 4mn
Bit rate                                 : 1 963 Kbps
Width                                    : 720 pixels
Height                                   : 304 pixels
Display aspect ratio                     : 2.35:1
Frame rate                               : 23.976 fps
Color space                              : YUV
Chroma subsampling                       : 4:2:0
Bit depth                                : 8 bits
Scan type                                : Progressive
Compression mode                         : Lossy
Bits/(Pixel*Frame)                       : 0.374
Stream size                              : 1.71 GiB (83%)
Writing library                          : XviD 1.2.1 (UTC 2008-12-04)
Audio
ID                                       : 1
Format                                   : AC-3
Format/Info                              : Audio Coding 3
Mode extension                           : CM (complete main)
Format settings, Endianness              : Big
Codec ID                                 : 2000
Duration                                 : 2h 4mn
Bit rate mode                            : Constant
Bit rate                                 : 384 Kbps
Channel(s)                               : 2 channels
Channel positions                        : Front: L R
Sampling rate                            : 48.0 KHz
Bit depth                                : 16 bits
Compression mode                         : Lossy
Stream size                              : 343 MiB (16%)
Alignment                                : Split accross interleaves
Interleave, duration                     : 42 ms (1.00 video frame)
Interleave, preload duration             : 500 ms

Скриншот c названием фильма

Скриншоты



Создавать темы 14-Мар-2015 07:47

[Профиль]  [ЛС] 
Показать сообщения:    
Ответить на тему

Текущее время: 23-Ноя 06:42

Часовой пояс: UTC + 5



Вы не можете начинать темы
Вы не можете отвечать на сообщения
Вы не можете редактировать свои сообщения
Вы не можете удалять свои сообщения
Вы не можете голосовать в опросах
Вы не можете прикреплять файлы к сообщениям
Вы не можете скачивать файлы