Голубая кровь / Blue Bloods / Сезон: 4 / Серии: 1-22 (22) (Ральф Хемекер, Фредерик Кинг Келлер, Майкл Прессман) [2013, драма, криминал, HDTVRip] MVO (студия "Gramalant") + Original

Ответить на тему
 

GRIMM ®

Стаж: 6 лет 7 месяцев

Сообщений: 811

Симпатии: 172

Голубая кровь / Blue Bloods
Сезон 4 Серия 1-22

-Год выпуска: 2014
Страна: США
Жанр: драма, криминал
Продолжительность: 00:45:00
Перевод: Любительский многоголосый закадровый "Gramalant"-Режиссёр: Ральф Хемекер, Фредерик Кинг Келлер, Майкл Прессман-В ролях: Дженнифер Винер, Лен Кариу, Уилл Эстес, Бриджет Мойнэхэн, Том Селлек, Донни Уолберг, Майк Хэвок, Флекс Александр, Коллин Клинтон, Дэвид Энзуэло-Описание: 4-й сезон криминально-драматического популярного американского телесериала «Голубая кровь» (оригинальное название Blue Bloods) о семье полицейских из Нью-Йорка.
Первые два сезона получили очень высокие рейтинги и множество положительных отзывов от зрителей, а его создатели, которые также работали над сериалом «Клан Сопрано», получили две премии «Эмми». Основными персонажами сериала является семья Рейганов.
Френк Рейган — глава полиции Нью-Йорка и патриарх семейства Рейганов, которым он управляет столь же дипломатично, как управляет полицией, даже когда имеет дело с политикой, что досаждала его чрезмерно смелому отцу, Генри, когда тот был главой полиции. Источником гордости и беспокойства Френка является его старший сын, Дэнни, опытный детектив, семейный человек и ветеран войны в Ираке, который иногда прибегает к сомнительным методам для раскрытия дел.
Единственная женщина в семье, Эрин, работает помощником прокурора Нью-Йорка, мать-одиночка, которая служит компасом закона для братьев и отца. Джейми — младший из Рейганов, недавно закончил юридический Гарварда и считается «золотым ребенком» семьи. Но он решил следовать семейной традиции, и отказался от работы в престижной юридической фирме, чтобы стать копом.
-Качество: HDTVRip
Формат: AVI
Видео кодек: XviD
Аудио кодек: MP3
Видео: XviD, 624*352, 23.976 fps, 975 Kbps, 0.179 Bit/Pixel
Аудио 1: Mp3, 48 kHz, 2 ch, 128 kbps
Аудио 2: MP3, 48 kHz, 2 ch, 128 kbps

MediaInfo

General
Complete name : D:\Torrent-раздачи\Blue Bloods s04 Gramalant\Blue.Bloods.S04E01.HDTVRip.rus.Gramalant.avi
Format : AVI
Format/Info : Audio Video Interleave
File size : 431 MiB
Duration : 43mn 51s
Overall bit rate : 1 373 Kbps
Writing application : VirtualDubMod 1.5.10.2 (build 2540/release)
Writing library : VirtualDubMod build 2540/release
Video
ID : 0
Format : MPEG-4 Visual
Format profile : Advanced [email protected]
Format settings, BVOP : 2
Format settings, QPel : No
Format settings, GMC : No warppoints
Format settings, Matrix : Default (H.263)
Muxing mode : Packed bitstream
Codec ID : XVID
Codec ID/Hint : XviD
Duration : 43mn 51s
Bit rate : 975 Kbps
Width : 624 pixels
Height : 352 pixels
Display aspect ratio : 16:9
Frame rate : 23.976 fps
Color space : YUV
Chroma subsampling : 4:2:0
Bit depth : 8 bits
Scan type : Progressive
Compression mode : Lossy
Bits/(Pixel*Frame) : 0.185
Stream size : 306 MiB (71%)
Writing library : XviD 64
Audio #1
ID : 1
Format : MPEG Audio
Format version : Version 1
Format profile : Layer 3
Codec ID : 55
Codec ID/Hint : MP3
Duration : 43mn 51s
Bit rate mode : Constant
Bit rate : 256 Kbps
Channel count : 2 channels
Sampling rate : 44.1 KHz
Compression mode : Lossy
Stream size : 80.3 MiB (19%)
Alignment : Split accross interleaves
Interleave, duration : 42 ms (1.00 video frame)
Interleave, preload duration : 500 ms
Title : Gramalant
Audio #2
ID : 2
Format : MPEG Audio
Format version : Version 1
Format profile : Layer 3
Mode : Joint stereo
Mode extension : MS Stereo
Codec ID : 55
Codec ID/Hint : MP3
Duration : 43mn 51s
Bit rate mode : Constant
Bit rate : 128 Kbps
Channel count : 2 channels
Sampling rate : 48.0 KHz
Compression mode : Lossy
Stream size : 40.2 MiB (9%)
Alignment : Aligned on interleaves
Interleave, duration : 42 ms (1.00 video frame)
Interleave, preload duration : 504 ms

Скриншоты





Последний раз редактировалось: GRIMM (2016-07-29 20:55), всего редактировалось 6 раз(а)

Создавать темы 14-Мар-2015 19:40

[Профиль]  [ЛС] 

GRIMM ®

Стаж: 6 лет 7 месяцев

Сообщений: 811

Симпатии: 172

Добавил 5-6 серию

Создавать темы 22-Мар-2015 17:39

[Профиль]  [ЛС] 

GRIMM ®

Стаж: 6 лет 7 месяцев

Сообщений: 811

Симпатии: 172

Добавил 7-8 серию

Создавать темы 02-Май-2015 22:35

[Профиль]  [ЛС] 

GRIMM ®

Стаж: 6 лет 7 месяцев

Сообщений: 811

Симпатии: 172

Добавил 9 серию

Создавать темы 31-Май-2015 22:28

[Профиль]  [ЛС] 

GRIMM ®

Стаж: 6 лет 7 месяцев

Сообщений: 811

Симпатии: 172

Добавил 10-11 серию

Создавать темы 08-Июн-2015 22:35

[Профиль]  [ЛС] 

GRIMM ®

Стаж: 6 лет 7 месяцев

Сообщений: 811

Симпатии: 172

Скоро будет продолжение

Создавать темы 16-Окт-2015 21:32

[Профиль]  [ЛС] 

GRIMM ®

Стаж: 6 лет 7 месяцев

Сообщений: 811

Симпатии: 172

Добавил 12-20 серий

Создавать темы 06-Мар-2016 21:00

[Профиль]  [ЛС] 

Mikrozaur

Стаж: 1 год 8 месяцев

Сообщений: 2

Спасиибо

Создавать темы 15-Сен-2016 12:46

[Профиль]  [ЛС] 

brmusic

Стаж: 1 год

Сообщений: 9

дайте скорости плиз

Создавать темы 20-Сен-2016 15:55

[Профиль]  [ЛС] 

GRIMM ®

Стаж: 6 лет 7 месяцев

Сообщений: 811

Симпатии: 172

brmusic, ты исправь свой айпи фильтр ты у меня с внешки качаешь

Создавать темы 20-Сен-2016 18:37

[Профиль]  [ЛС] 
Показать сообщения:    
Ответить на тему

Текущее время: 24-Авг 08:14

Часовой пояс: UTC + 5



Вы не можете начинать темы
Вы не можете отвечать на сообщения
Вы не можете редактировать свои сообщения
Вы не можете удалять свои сообщения
Вы не можете голосовать в опросах
Вы не можете прикреплять файлы к сообщениям
Вы не можете скачивать файлы