Сверхспособности / Powers / Сезон: 1 полный / Серии: 1-10 из 10 (Дэвид Петрарка, Микаэл Саломон, Билл Иглз) [2015, фантастика, драма, криминал, WEB-DLRip] (MVO : IDEAFILM)

Ответить на тему
 

saidali ®

Стаж: 5 лет 10 месяцев

Сообщений: 868

Симпатии: 554

--Сверхспособности | Powers-- Год выпуска: 2015
Страна: США
Жанр: фантастика, драма, криминал
Продолжительность: ~ 00:53:00-Перевод: Профессиональный многоголосый закадровый | IDEAFILM-Режиссёр: Дэвид Петрарка, Микаэл Саломон, Билл Иглз-В ролях: Шарлто Копли, Эдди Иззард, Мишель Форбс, Сьюзэн Хэйард, Ноа Тейлор, Логан Браунинг, Джастис Лик, Эндрю Сенсениг, Адам Годли, Филлип ДеВона-Описание: Сюжет сериала разворачивается в мире, где супергерои живут среди обычных людей. Сотрудники убойного отдела Кристиан Уокер и Дина Пилгрим занимаются защитой простых людей от преступников со сверхспособностями и расследуют дела, в которых замешаны эти супергерои.-Качество: WEB-DLRip
Формат: AVI
Видео кодек: XviD
Аудио кодек: AC3
Видео: 720x400 (16:9), 23.970 fps ~ 1580 Kbps
Аудио: 48 KHz 2 ch ~ 192 Kb/s-

MediaInfo

General
Complete name : F:\Фильмы\Сериалы\Powers. Season 1 (2015 [Ideafilm]\Powers.s01e01.WEBDLRip.IDEAFILM.avi
Format : AVI
Format/Info : Audio Video Interleave
File size : 677 MiB
Duration : 53mn 1s
Overall bit rate : 1 785 Kbps
Writing application : VirtualDubMod 1.5.10.3 | www.virtualdub-fr.org || (build 2550/release)
Writing library : VirtualDubMod build 2550/release
Video
ID : 0
Format : MPEG-4 Visual
Format profile : Advanced [email protected]
Format settings, BVOP : 2
Format settings, QPel : No
Format settings, GMC : No warppoints
Format settings, Matrix : Default (MPEG)
Codec ID : XVID
Codec ID/Hint : XviD
Duration : 53mn 1s
Bit rate : 1 581 Kbps
Width : 720 pixels
Height : 400 pixels
Display aspect ratio : 16:9
Frame rate : 29.970 fps
Color space : YUV
Chroma subsampling : 4:2:0
Bit depth : 8 bits
Scan type : Progressive
Compression mode : Lossy
Bits/(Pixel*Frame) : 0.183
Stream size : 600 MiB (89%)
Writing library : XviD 1.2.1 (UTC 2008-12-04)
Audio
ID : 1
Format : AC-3
Format/Info : Audio Coding 3
Mode extension : CM (complete main)
Format settings, Endianness : Big
Codec ID : 2000
Duration : 53mn 1s
Bit rate mode : Constant
Bit rate : 192 Kbps
Channel(s) : 2 channels
Channel positions : Front: L R
Sampling rate : 48.0 KHz
Bit depth : 16 bits
Compression mode : Lossy
Stream size : 72.8 MiB (11%)
Alignment : Split accross interleaves
Interleave, duration : 33 ms (1.00 video frame)
Interleave, preload duration : 500 ms

Скриншоты





Последний раз редактировалось: saidali (2015-06-16 14:28), всего редактировалось 4 раз(а)

Создавать темы 15-Мар-2015 12:17

[Профиль]  [ЛС] 

PupuseG

Стаж: 5 лет 2 месяца

Сообщений: 514

Симпатии: 64

Оценим, что за бяка.=)

Создавать темы 15-Мар-2015 19:04

[Профиль]  [ЛС] 

marat21

Стаж: 6 лет 10 месяцев

Сообщений: 52

Симпатии: 3

2 серия жду

Создавать темы 16-Мар-2015 07:31

[Профиль]  [ЛС] 

saidali ®

Стаж: 5 лет 10 месяцев

Сообщений: 868

Симпатии: 554

2-3 серии!

Создавать темы 19-Мар-2015 18:26

[Профиль]  [ЛС] 

saidali ®

Стаж: 5 лет 10 месяцев

Сообщений: 868

Симпатии: 554

4 серия!

Создавать темы 23-Мар-2015 21:03

[Профиль]  [ЛС] 

Twista

Стаж: 5 лет 11 месяцев

Сообщений: 156

Симпатии: 15

Фильм не плох, не такой как другие супергеройские.
Можно узнать когда продолжения сможете загрузить

_________________
Подпись отключена за нарушение правил форума

Создавать темы 06-Апр-2015 17:15

[Профиль]  [ЛС] 

saidali ®

Стаж: 5 лет 10 месяцев

Сообщений: 868

Симпатии: 554

Полный сезон!

Создавать темы 13-Июн-2015 00:08

[Профиль]  [ЛС] 
Показать сообщения:    
Ответить на тему

Текущее время: 16-Дек 18:01

Часовой пояс: UTC + 5



Вы не можете начинать темы
Вы не можете отвечать на сообщения
Вы не можете редактировать свои сообщения
Вы не можете удалять свои сообщения
Вы не можете голосовать в опросах
Вы не можете прикреплять файлы к сообщениям
Вы не можете скачивать файлы