Чрево / Womb (Бенедек Флигауф / Benedek Fliegauf) [2010, Германия, Венгрия, Франция, фантастика, драма, мелодрама, BDRip] MVO + Original Eng + Sub (Rus, Eng, Ukr)

Ответить на тему
 

kat222000 ®

Стаж: 6 лет 5 месяцев

Сообщений: 608

Симпатии: 1055

-Чрево / Womb«Возможна ли вечная любовь в фантастическом мире?»-Страна: Германия, Венгрия, Франция
Жанр: фантастика, драма, мелодрама
Год выпуска: 2010
Продолжительность: 01:51:52
Перевод: Профессиональный (многоголосый закадровый)-Cубтитры: русскиe, украинские, английские (внешние srt*)
Оригинальная аудиодорожка: английский-Режиссер: Бенедек Флигауф / Benedek Fliegauf-В ролях: Ева Грин, Мэтт Смит, Лесли Мэнвилл, Питер Уайт, Иштван Ленар, Ханна Мюррэй, Руби О. Фи, Тристан Кристофер, Джесси Хоффманн, Наталия Тена-Описание: Женщина клонирует своего умершего возлюбленного и воспитывает его с младенчества до юношества, постоянно испытывая сомнения в том, верное ли решение она приняла.- -Возраст: зрителям, достигшим 18 лет-Рейтинг MPAA: лицам до 17 лет обязательно присутствие взрослого-Качество видео: BDRip (источник: arxivariys / Blu-Ray Remux / 1080р)
Формат видео: AVI
Видео кодек: XviD
Аудио кодек: AC3
Видео: 720x304 (2.37:1), 24 fps, XviD build 65 ~2147 kbps avg, 0.41 bit/pixel
Аудио 1: 48 kHz, AC3 Dolby Digital, 2/0 (L,R), ~192.00 kbps avg [rus]
Аудио 2: 48 kHz, AC3 Dolby Digital, 3/2 (L,C,R,l,r) + LFE ch, ~448.00 kbps avg [eng]-

MediaInfo

Формат : AVI
Формат/Информация : Audio Video Interleave
Профиль формата : OpenDML
Размер файла : 2,18 Гбайт
Продолжительность : 1 ч. 51 м.
Общий поток : 2794 Кбит/сек
Название фильма : Чрево / Womb (2010) BDRip
Программа кодирования : VirtualDubMod 1.5.10.2 (build 2542/release)
Примечание : 11.01.2014
Видео
Идентификатор : 0
Формат : MPEG-4 Visual
Профиль формата : Advanced [email protected]
Параметр BVOP формата : 1
Параметр QPel формата : Нет
Параметр GMC формата : Без точки перехода
Параметр матрицы формата : Выборочная
Идентификатор кодека : XVID
Идентификатор кодека/Подсказка : XviD
Продолжительность : 1 ч. 51 м.
Битрейт : 2136 Кбит/сек
Ширина : 720 пикселей
Высота : 304 пикселя
Соотношение сторон : 2,35:1
Частота кадров : 24,000 кадра/сек
Цветовое пространство : YUV
Субдискретизация насыщенности : 4:2:0
Битовая глубина : 8 бит
Тип развёртки : Прогрессивная
Метод сжатия : С потерями
Бит/(Пиксели*Кадры) : 0.407
Размер потока : 1,67 Гбайт (76%)
Библиотека кодирования : XviD 65
Аудио #1
Идентификатор : 1
Формат : AC-3
Формат/Информация : Audio Coding 3
Расширение режима : CM (complete main)
Параметр Endianness формата : Big
Идентификатор кодека : 2000
Продолжительность : 1 ч. 51 м.
Вид битрейта : Постоянный
Битрейт : 192 Кбит/сек
Каналы : 2 канала
Расположение каналов : Front: L R
Частота : 48,0 КГц
Битовая глубина : 16 бит
Метод сжатия : С потерями
Размер потока : 154 Мбайт (7%)
Выравнивание : Разделение по промежуткам
Продолжительность промежутка : 42 мс. (1,00 видеокадр)
Время предзагрузки промежутка : 500 мс.
Аудио #2
Идентификатор : 2
Формат : AC-3
Формат/Информация : Audio Coding 3
Расширение режима : CM (complete main)
Параметр Endianness формата : Big
Идентификатор кодека : 2000
Продолжительность : 1 ч. 51 м.
Вид битрейта : Постоянный
Битрейт : 448 Кбит/сек
Каналы : 6 каналов
Расположение каналов : Front: L C R, Side: L R, LFE
Частота : 48,0 КГц
Битовая глубина : 16 бит
Метод сжатия : С потерями
Размер потока : 359 Мбайт (16%)
Выравнивание : Разделение по промежуткам
Продолжительность промежутка : 42 мс. (1,00 видеокадр)
Время предзагрузки промежутка : 500 мс.
-

Скриншоты




- - -

Создавать темы 15-Мар-2015 18:49

[Профиль]  [ЛС] 

vlacom

Стаж: 4 года 2 месяца

Сообщений: 44

Симпатии: 21

Качаю, чтоб обновить свой, у моего битрейт в 2 раза меньше((, спасибо за релиз

Создавать темы 15-Мар-2015 19:59

[Профиль]  [ЛС] 

Davron1402

Стаж: 3 года 8 месяцев

Сообщений: 136

Симпатии: 122

kat222000, ты только Арт-хаус и авторское кино смотриеш ?

Создавать темы 18-Мар-2015 12:19

[Профиль]  [ЛС] 

Semen

Стаж: 6 лет 10 месяцев

Сообщений: 87

Симпатии: 7

Как фильм?

Создавать темы 19-Мар-2015 08:01

[Профиль]  [ЛС] 

Davron1402

Стаж: 3 года 8 месяцев

Сообщений: 136

Симпатии: 122

фильм г...о, зачем добавит такое кино?

Создавать темы 30-Мар-2015 16:00

[Профиль]  [ЛС] 

vlacom

Стаж: 4 года 2 месяца

Сообщений: 44

Симпатии: 21

928256фильм г...о, зачем добавит такое кино?
Фильм не для средних умов

Создавать темы 30-Мар-2015 18:35

[Профиль]  [ЛС] 

Davron1402

Стаж: 3 года 8 месяцев

Сообщений: 136

Симпатии: 122

Davron1402 писал(а):
фильм г...о, зачем добавит такое кино?
Фильм не для средних умов
Кого то вапше нет ум

Создавать темы 02-Апр-2015 21:23

[Профиль]  [ЛС] 

Davron1402

Стаж: 3 года 8 месяцев

Сообщений: 136

Симпатии: 122

928304Фильм не для средних умов
У кого то нет ум

Создавать темы 02-Апр-2015 21:24

[Профиль]  [ЛС] 

Jasur_96

Стаж: 3 года 10 месяцев

Сообщений: 7

Симпатии: 1

Кого то вапше нет ум
А у кого-то даже среднего образования похоже нет - в одной фразе 6 ошибок.

Создавать темы 21-Авг-2015 01:36

[Профиль]  [ЛС] 
Показать сообщения:    
Ответить на тему

Текущее время: 23-Сен 14:22

Часовой пояс: UTC + 5



Вы не можете начинать темы
Вы не можете отвечать на сообщения
Вы не можете редактировать свои сообщения
Вы не можете удалять свои сообщения
Вы не можете голосовать в опросах
Вы не можете прикреплять файлы к сообщениям
Вы не можете скачивать файлы