Крым. Путь на Родину (Владимир Кондрашов) [2015 г., документальный, SATRip] (Эфир от 15.03.2015)

Ответить на тему
 

igor1968 ®

Стаж: 5 лет 5 месяцев

Сообщений: 366

Симпатии: 197

Крым. Путь на Родину (Эфир от 15.03.2015) Перевод: Не требуется,
cубтитры: отсутствуют
Формат: SATRip
Страна: Россия
Режиссер: Владимир Кондрашов
Жанр: документальный
Продолжительность: 02:24:54.200
Год выпуска: 2015
Описание:
Полнометражная документальная лента была задумана, чтобы сохранить для истории каждый значимый эпизод событий, происходивших в Крыму весной 2014 года.
Съемки продолжались 8 месяцев и охватили Севастополь и Форос, Симферополь и Керчь, Ялту и Бахчисарай; Феодосию, Джанкой, Алушту и еще десяток населенных пунктов Крыма. По горячим следам был записан большой разговор с Владимиром Путиным, а потом еще больше полусотни интервью с участниками и свидетелями Крымской весны. С чего все началось? Как Россия получила официальное обращение от легитимного президента Украины с просьбой спасти ему жизнь?

знаете ли вы

Это была операция, аналогов которой не было в новейшей мировой истории. Все подробности того, как за несколько километров до засады с пулеметами был тайно эвакуирован Виктор Янукович, спустя год открывает сам Владимир Путин, и в фильме этому посвящена детальная реконструкция.
"Это была ночь с 22 на 23 февраля, закончили около 7 часов утра, и я всех отпустил и пошел спать в 7 утра. И, расставаясь, не скрою, расставаясь, перед тем как все разошлись, я всем моим коллегам, а их было четверо, сказал, что ситуация развернулась таким образом на Украине, что мы вынуждены начать работу по возврату Крыма в состав России. Потому что мы не можем бросить эту территорию и людей, которые там проживают, на произвол судьбы, под каток националистов. И поставил определенные задачи, сказал, что и как мы должны делать, но сразу же подчеркнул, что мы будем делать это только в том случае, если будем абсолютно убеждены в том, что этого хотят сами люди, которые проживают в Крыму", — рассказал в интервью Владимир Путин.
Поэтому первое распоряжение, которое было отдано президентом, касалось не спецслужб и минобороны, а собственной Администрации, специалисты которой совместно с социологами провели в Крыму закрытый опрос. На какие вопросы отвечали крымчане, если даже слово "референдум" еще не фигурировало?
"Выяснилось, что желающих присоединиться к России там 75% от общего состава. Вы понимаете, был проведен закрытый опрос, вне контекста возможного присоединения. Для меня стало очевидным, что если мы подойдем к этому, то уровень или количество тех, кто бы хотел, чтобы это историческое событие произошло, будет гораздо выше", — отметил российский президент.
Корсуньский погром. Сколько людей погибло и пропало без вести, после того как украинские националисты напали на автоколонну крымчан и сожгли их автобусы? Как формировалось ополчение Крыма. Кто был его лидером?
Как впервые появились в Крыму вежливые люди? Кто это был, чьим приказом они были отправлены на полуостров? И сколько времени заняла спецоперация, в результате которой в ночь на 27 февраля были взяты под охрану все ключевые здания органов власти?
"Конечная цель была не в захвате Крыма и не в какой-то аннексии. Конечная цель была в том, чтобы дать возможность людям выразить свое мнение по поводу того, как они хотят жить дальше. Говорю Вам совершенно откровенно, честно говорю Вам. Про себя подумал, если люди так захотят, значит, так тому и быть. Значит, они будут там с большей автономией, с какими-то правами, но в составе Украинского государства. Пусть так и будет. Но если они захотят по-другому, то мы не можем их бросить! Мы результаты референдума знаем. И мы поступили так, как были обязаны поступить!", — пояснил российский лидер.
Как умудрились без кровопролития разоружить 193 воинские части Украины в Крыму? В чем был секрет Командующего Черноморским Флотом, который приглашал украинских коллег на переговоры исключительно в Херсонес? Как удалось закрыть в бухтах корабли украинских ВМС? Но почему все-таки не обошлось без штурма и стрельбы в Феодосии?
Как Россия соприкоснулась в Крыму с подразделениями НАТО, а в море с военно-морскими силами ВМС? О чем Владимир Путин говорил в те дни с Бараком Обамой? И как попали в Крым наши береговые ракетные комплексы "Бастион", внезапно изменившие весь ход событий? Два откровенных интервью Владимира Путина и все эпизоды крымской весны, которые определили ход новейшей истории России - смотрите в фильме "Крым. Путь на Родину".
- -Качество: SATRip
Формат:AVI
Видео кодек: XviD
Аудио кодек: MP3
Видео: 786x576 (1.36:1), 25 fps, XviD build 64 ~1497 kbps avg, 0.13 bit/pixel
Аудио: 48 kHz, MPEG Layer 3, 2 ch, ~160.00 kbps avg-

MediaIfo

General
Complete name : КРЫМ Путь на Родину.avi
Format : AVI
Format/Info : Audio Video Interleave
Format profile : OpenDML
File size : 1.69 GiB
Duration : 2h 24mn
Overall bit rate : 1 665 Kbps
Writing application : Lavf54.63.104
Video
ID : 0
Format : xvid
Codec ID : xvid
Duration : 2h 24mn
Bit rate : 1 491 Kbps
Width : 786 pixels
Height : 576 pixels
Display aspect ratio : 4:3
Frame rate : 25.000 fps
Bits/(Pixel*Frame) : 0.132
Stream size : 1.51 GiB (90%)
Audio
ID : 1
Format : MPEG Audio
Format version : Version 1
Format profile : Layer 3
Mode : Joint stereo
Mode extension : MS Stereo
Codec ID : 55
Codec ID/Hint : MP3
Duration : 2h 24mn
Bit rate mode : Constant
Bit rate : 160 Kbps
Channel count : 2 channels
Sampling rate : 48.0 KHz
Compression mode : Lossy
Stream size : 166 MiB (10%)
Alignment : Aligned on interleaves
Interleave, duration : 24 ms (0.60 video frame)
-

Скриншоты




Создавать темы 16-Мар-2015 08:19

[Профиль]  [ЛС] 

Darned

Стаж: 7 лет 4 месяца

Сообщений: 16

Симпатии: 3

ну где же модератор - енки, модератор, модератор - енки, короткие юбчонки юбчонки.... )

Создавать темы 16-Мар-2015 11:22

[Профиль]  [ЛС] 

flashcsgroup

Стаж: 5 лет

Сообщений: 21

Где торрент?

Создавать темы 16-Мар-2015 13:08

[Профиль]  [ЛС] 

mansereman

Стаж: 6 лет 7 месяцев

Сообщений: 1

Симпатии: 1

саркоровцы не ограничивайте отдачу...

Создавать темы 16-Мар-2015 20:58

[Профиль]  [ЛС] 

shoxrux09

Стаж: 4 года 9 месяцев

Сообщений: 32

Симпатии: 4

Отличный фильм.

Создавать темы 18-Мар-2015 22:18

[Профиль]  [ЛС] 
Показать сообщения:    
Ответить на тему

Текущее время: 21-Авг 11:37

Часовой пояс: UTC + 5



Вы не можете начинать темы
Вы не можете отвечать на сообщения
Вы не можете редактировать свои сообщения
Вы не можете удалять свои сообщения
Вы не можете голосовать в опросах
Вы не можете прикреплять файлы к сообщениям
Вы не можете скачивать файлы