Возвращённые, 1 сезон 1-10 серии из 10 / The Returned [Jaskier] (Кит Гордон) [2015, ужасы, драма, HDTVRip, Р]

Страницы :  1, 2  След.

Ответить на тему
 

lector_87 ®

Стаж: 3 года 6 месяцев

Сообщений: 391

Симпатии: 348

Возвращённые / The Returned
Год выпуска: 2015
Страна: США
Жанр: ужасы, драма
Продолжительность: 2 х ~00:45:00--Перевод: Профессиональный многоголосый закадровый Jaskier
Режиссёр: Кит Гордон--В ролях: Мэри Элизабет Уинстэд, Дилан Кингуэлл, Софи Лоу, Аарон Дуглас, Леа Гибсон, Чела Хорсдэл, Джейн Крэйвен, Моник Питер, Брюс Блэйн, Индия Энненга Мэри Элизабет Уинстэд, Дилан Кингуэлл, Софи Лоу, Аарон Дуглас, Леа Гибсон, Чела Хорсдэл, Джейн Крэйвен, Моник Питер, Брюс Блэйн, Индия Энненга--Описание: Сериал рассказывает о маленьком городке, жизнь в котором перевернулась с ног на голову, когда неожиданно объявились несколько местных жителей, которых давно считали погибшими. Причем они совсем не постарели с момента их исчезновения и, более того, ничего не знали о собственной смерти.--Качество: HDTVRip
Формат: AVI
Видео кодек: XviD
Аудио кодек: MP3
Видео: 640x360 (1.78:1), 23.976 fps, XviD build 64 ~1001 kbps avg, 0.18 bit/pixel
Аудио 1: .Русский: 44.100 kHz, MPEG Layer 3, 2 ch, ~128.00 kbps avg [Профессиональный (многоголосый, закадровый)]
Аудио 2: .Английский: 48 kHz, MPEG Layer 3, 2 ch, ~128.00 kbps avg [Оригинал]
Субтитры: отсутствуют--

Список серий

01. Камилла
02. Саймон
03. Джули
04. Виктор
05.Тони и Адам
06.Люси / Lucy
07.Rowan
08.Claire
09.Helen
10.

MediaInfo

Расположение: D:\Video\The Returned.Jaskier\The.Returned.s01e01.Jaskier.avi
Имя файла: The.Returned.s01e01.Jaskier.avi
Формат файла: .avi (AVI)
Размер файла: 415.39 MB (435 568 640 bytes)
Длительность: 45mn 58s
Навигация по главам: Нет
Битрейт (все потоки): 1 263 Kbps
Тип битрейта (все потоки): Variable
Создан при помощи: VirtualDubMod 1.5.10.2 (build 2540/release)
Использовалась библиотека: VirtualDubMod build 2540/release
Обложка: Отсутствует
Название: The.Returned.s01e01.Jaskier
Тип потока: Видео
Длительность: 00:45:58
Кодек: MPEG-4 Visual
Кодек/профиль: Advanced [email protected]
Кодек/ID: XVID
Размеры изображения: 640 x 360 (16:9)
Частота кадров: 23.976 fps
Размер потока: 325 MiB (78%)
Битрейт: 990 Kbps
Метод сжатия: Lossy
Библиотека кодирования: XviD 64
Цветовое пространство: YUV
Тип развёртки: Progressive
Колориметрия: 4:2:0
Глубина: 8 bits
Тип потока: Звук #1
Длительность: 00:45:58.451
Кодек: MPEG Audio
Кодек/профиль: Layer 3
Кодек/ID: 55
Частота дискретизации: 44.1 KHz
Каналов: 2 channels
Битрейт: 128 Kbps
Битрейт/тип: Constant
Размер потока: 42.1 MiB (10%)
Метод сжатия: Lossy
Тип потока: Звук #2
Длительность: 00:45:58.464
Кодек: MPEG Audio
Кодек/профиль: Layer 3
Кодек/ID: 55
Частота дискретизации: 48.0 KHz
Каналов: 2 channels
Битрейт: 128 Kbps
Битрейт/тип: Variable
Размер потока: 42.1 MiB (10%)
Метод сжатия: Lossy

Скриншоты




Внимание! Раздача ведётся путём добавления новых серий

Внимание! Раздача ведётся путём добавления новых серий; при каждом добавлении создаётся новый торрент. Чтобы начать докачку новой серии, пользователям необходимо сделать следующее:
(1) остановить скачивание,
(2) удалить старый торрент у себя из клиента (старые серии удалять не надо),
(3) скачать новый торрент и запустить его у себя в клиенте вместо старого, при этом указать клиенту путь в старую папку куда и должно происходить скачивание новых серий.
Ваш клиент при этом должен произвести хеширование (проверку) старой папки (если не производит сам - помогите ему сделать это), и будет докачивать только те серии которых у вас ещё нет. Старые серии при этом не удаляются, а продолжают раздаваться!
Eсли вы уже удалили старые серии, то предотвратить повторную закачку старых серий можно, отжав галочку в соответствующих местах при запуске нового торрента. По возможности, желательно не удалять старые серии как можно дольше чтобы релизёр не столько продолжал раздавать старые серии, а смог сконцентрироваться на новых.
Трейлер к сериалу


Последний раз редактировалось: lector_87 (2015-06-07 18:59), всего редактировалось 14 раз(а)

Создавать темы 16-Мар-2015 20:38

[Профиль]  [ЛС] 

lector_87 ®

Стаж: 3 года 6 месяцев

Сообщений: 391

Симпатии: 348

Внимание добавлена 3 серия обновите торент файл

Создавать темы 29-Мар-2015 15:20

[Профиль]  [ЛС] 

lector_87 ®

Стаж: 3 года 6 месяцев

Сообщений: 391

Симпатии: 348

Внимание! Добавлена 4 серия.

Создавать темы 05-Апр-2015 20:03

[Профиль]  [ЛС] 

lector_87 ®

Стаж: 3 года 6 месяцев

Сообщений: 391

Симпатии: 348

5 серия

Создавать темы 12-Апр-2015 18:14

[Профиль]  [ЛС] 

marat21

Стаж: 6 лет 6 месяцев

Сообщений: 52

Симпатии: 3

lector_87, тебе +сы но продолжение где друг?

Создавать темы 24-Апр-2015 07:57

[Профиль]  [ЛС] 

lector_87 ®

Стаж: 3 года 6 месяцев

Сообщений: 391

Симпатии: 348

marat21, новая серия долго не выходила сегодня вечерком залью 6 серию

Создавать темы 25-Апр-2015 07:39

[Профиль]  [ЛС] 

lector_87 ®

Стаж: 3 года 6 месяцев

Сообщений: 391

Симпатии: 348

добавил 6 серию

Создавать темы 25-Апр-2015 10:53

[Профиль]  [ЛС] 

Twista

Стаж: 5 лет 7 месяцев

Сообщений: 156

Симпатии: 15

как звучка ?

_________________
Подпись отключена за нарушение правил форума

Создавать темы 25-Апр-2015 20:23

[Профиль]  [ЛС] 

marat21

Стаж: 6 лет 6 месяцев

Сообщений: 52

Симпатии: 3

Twista, звучка норм и сам сериал интересный, много загадок!!!

Создавать темы 26-Апр-2015 07:46

[Профиль]  [ЛС] 

marat21

Стаж: 6 лет 6 месяцев

Сообщений: 52

Симпатии: 3

lector_87, Twista, 7 серия сегодня ночью выйдет, буду ждать

Создавать темы 26-Апр-2015 23:52

[Профиль]  [ЛС] 

lector_87 ®

Стаж: 3 года 6 месяцев

Сообщений: 391

Симпатии: 348

7 серия

Создавать темы 01-Май-2015 06:21

[Профиль]  [ЛС] 

lector_87 ®

Стаж: 3 года 6 месяцев

Сообщений: 391

Симпатии: 348

8 серия добавлена

Создавать темы 08-Май-2015 00:49

[Профиль]  [ЛС] 

marat21

Стаж: 6 лет 6 месяцев

Сообщений: 52

Симпатии: 3

9-10 в студию плиз!!!

Создавать темы 16-Май-2015 19:40

[Профиль]  [ЛС] 

lector_87 ®

Стаж: 3 года 6 месяцев

Сообщений: 391

Симпатии: 348

10 серия ешё не вышла как выйдет так сразу залью обе серии

Создавать темы 17-Май-2015 14:39

[Профиль]  [ЛС] 

marat21

Стаж: 6 лет 6 месяцев

Сообщений: 52

Симпатии: 3

Ок друг жду с нетерпением !!!!!!!!!!!!!!!!!

Создавать темы 17-Май-2015 22:23

[Профиль]  [ЛС] 
Показать сообщения:    
Ответить на тему

Текущее время: 24-Авг 00:26

Часовой пояс: UTC + 5



Вы не можете начинать темы
Вы не можете отвечать на сообщения
Вы не можете редактировать свои сообщения
Вы не можете удалять свои сообщения
Вы не можете голосовать в опросах
Вы не можете прикреплять файлы к сообщениям
Вы не можете скачивать файлы