Опочтарение / Going Postal (Джон Джонс) [2010, Великобритания, фэнтези, комедия, HDTVRip] (Sub Rus + Original Eng)

Ответить на тему
 

akmal2295 ®

Стаж: 3 года 11 месяцев

Сообщений: 6

Симпатии: 2

Опочтарение / Going Postal
Страна: Великобритания
Жанр: фэнтези, комедия
Год выпуска: 2010
Продолжительность: 03:03:00
Перевод: Субтитры
Cубтитры: русские
Оригинальная аудиодорожка: английский
Режиссер: Джон Джонс
В ролях: Ричард Койл, Дэвид Суше, Чарльз Дэнс, Клер Фой, Тэмсин Грег, Эндрю Сакс, Ингрид Болсай Бердал, Алекс Прайс, Стив Пембертон, Джон Хеншоу
Описание: По одноименной книге Терри Пратчетта. В жизни каждого человека есть нелегкие решения. Мойст ван Липвиг, мастер художественной подделки и настоящий специалист по фальшивкам, тоже стоит перед тяжелым выбором данным ему "ангелом": выйти в небытие или поставить Почтовую Службу Анк-Морпорка с ног на голову.
Неуверенно приняв тяжелое, неоднозначное решение, он теперь должен следить за тем, чтобы, несмотря на дождь, снег, бандитов, бездорожье, Дружелюбный и Доброжелательный Профсоюз Почтовых Работников, скрупулезно честных и этичных конкурентов и полночные убийства, почта, тем не менее, вовремя доставлялась по назначению.
Доп. информация: В данной раздаче присутствуют английские и русские субтитры.
Качество видео: HDTVRip
Формат видео: AVI
Видео: DivX 624x352 (1.77:1), 25.000 fps, XviD ~935 kbps avg, 0.170 bit/pixel
Аудио: MP3 48 kHz, MPEG Layer 3, 2 ch, ~132.00 kbps avg

MediaInfo

General
Complete name : D:\Фильмы\Загрузка\Going Postal\Going.Postal.Part1.HDTV.XviD-BiA.avi
Format : AVI
Format/Info : Audio Video Interleave
File size : 701 MiB
Duration : 1h 33mn
Overall bit rate mode : Variable
Overall bit rate : 1 048 Kbps
Writing application : VirtualDubMod 1.5.10.2 (build 2540/release)
Writing library : VirtualDubMod build 2540/release
Video
ID : 0
Format : MPEG-4 Visual
Format profile : Advanced [email protected]
Format settings, BVOP : 2
Format settings, QPel : No
Format settings, GMC : No warppoints
Format settings, Matrix : Default (H.263)
Codec ID : XVID
Codec ID/Hint : XviD
Duration : 1h 33mn
Bit rate : 903 Kbps
Width : 624 pixels
Height : 352 pixels
Display aspect ratio : 16:9
Frame rate : 25.000 fps
Color space : YUV
Chroma subsampling : 4:2:0
Bit depth : 8 bits
Scan type : Progressive
Compression mode : Lossy
Bits/(Pixel*Frame) : 0.164
Stream size : 604 MiB (86%)
Writing library : XviD 1.2.1 (UTC 2008-12-04)
Audio
ID : 1
Format : MPEG Audio
Format version : Version 1
Format profile : Layer 3
Mode : Joint stereo
Mode extension : MS Stereo
Codec ID : 55
Codec ID/Hint : MP3
Duration : 1h 33mn
Bit rate mode : Variable
Bit rate : 128 Kbps
Channel(s) : 2 channels
Sampling rate : 48.0 KHz
Compression mode : Lossy
Stream size : 88.3 MiB (13%)
Alignment : Aligned on interleaves
Interleave, duration : 24 ms (0.60 video frame)
Interleave, preload duration : 191 ms
Writing library : LAME3.90.
Encoding settings : -m j -V 4 -q 2 -lowpass 17.6 --abr 128

Скриншоты





Последний раз редактировалось: akmal2295 (2015-03-19 14:49), всего редактировалось 2 раз(а)

Создавать темы 17-Мар-2015 09:31

[Профиль]  [ЛС] 

Grock

Стаж: 6 лет 7 месяцев

Сообщений: 637

Симпатии: 113

akmal2295, Здесь тоже самое.
Вот инструкция для создания скриншотов - Как сделать скриншоты, узнать тех. данные (включая MediaInfo) видео-файла с помощью Media Player Classic?

Создавать темы 17-Мар-2015 21:11

[Профиль]  [ЛС] 
Показать сообщения:    
Ответить на тему

Текущее время: 22-Сен 00:20

Часовой пояс: UTC + 5



Вы не можете начинать темы
Вы не можете отвечать на сообщения
Вы не можете редактировать свои сообщения
Вы не можете удалять свои сообщения
Вы не можете голосовать в опросах
Вы не можете прикреплять файлы к сообщениям
Вы не можете скачивать файлы