Санта-Хрякус. Страшдественская сказка / Terry Pratchett's Hogfather (Вадим Жан / Vadim Jean) [2006, Великобритания, Фэнтези, драма, DVDRip] (MVO)

Ответить на тему
 

akmal2295 ®

Стаж: 3 года 10 месяцев

Сообщений: 6

Симпатии: 2

Санта-Хрякус. Страшдественская сказка / Terry Pratchett's Hogfather
Страна: Великобритания
Жанр: Фэнтези, драма
Год выпуска: 2006
Продолжительность: 2 серии по ~ 01
Перевод: Профессиональный (многоголосый закадровый)
Cубтитры: нет
Режиссер: Вадим Жан / Vadim Jean
В ролях: Дэвид Джейсон, Марк Уоррен, Мишель Докери, Дэвид Уорнер, Тони Робинсон, Найджел Плэйнер, Питер Гиннесс, Стефен Маркус, Крэйг Конуэй, Родри Мейлир
Описание: Ночь перед Страшдеством обычно самое радостное время в Плоском мире, когда перевозбуждённые дети не могут заснуть, предвкушая подарки в развешенных для этого носках… Но в этом году с праздниками творится что-то не то. Всеобщие подозрения связаны с гильдией наёмных убийц Анк-Морпока, и что-то уже замышляется. А любимый дедушка Хог (Санта-Хрякус), который приносит детям подарки — куда-то пропал. И вся жизнь Плоского мира вдруг подвергается страшной опасности, ведь если дети перестанут в него верить, солнце больше не взойдёт! Судьба этого мира лежит в руках пёстрой команды, группки волшебников, возглавляемой аркканцлером Незримого Университета по имени Наверн Чудакули, в которую также входит слуга по имени Альберт, хладнокровная гувернантка Сюзан Сто Гелит и её дедушка, который вообще-то просто… Смерть.
Доп. информация: Кинопоиск = 8.240/10 || IMDb = 7.6/10
Качество видео: DVDRip
Формат видео: AVI
Видео: 704x512 (1.38:1), 25 fps, XviD MPEG-4 ~1173 kbps avg, 0.13 bit/pixel
Аудио: 48 kHz, AC3 Dolby Digital, 3/2 (L,C,R,l,r) + LFE ch, ~384.00 kbps avg

MediaInfo

General
Complete name : D:\Фильмы\Загрузка\Terry Pratchett's Hogfather_2006_DVDRip\Terry Pratchett's Hogfather_1.avi
Format : AVI
Format/Info : Audio Video Interleave
File size : 1.02 GiB
Duration : 1h 33mn
Overall bit rate : 1 567 Kbps
Writing application : VirtualDubMod 1.5.10.2 (build 2540/release)
Writing library : VirtualDubMod build 2540/release
Video
ID : 0
Format : MPEG-4 Visual
Format profile : Advanced [email protected]
Format settings, BVOP : 2
Format settings, QPel : No
Format settings, GMC : No warppoints
Format settings, Matrix : Default (MPEG)
Muxing mode : Packed bitstream
Codec ID : XVID
Codec ID/Hint : XviD
Duration : 1h 33mn
Bit rate : 1 173 Kbps
Width : 704 pixels
Height : 512 pixels
Display aspect ratio : 1.375
Frame rate : 25.000 fps
Color space : YUV
Chroma subsampling : 4:2:0
Bit depth : 8 bits
Scan type : Progressive
Compression mode : Lossy
Bits/(Pixel*Frame) : 0.130
Stream size : 784 MiB (75%)
Writing library : XviD 1.2.0.dev47 (UTC 2006-11-01)
Audio
ID : 1
Format : AC-3
Format/Info : Audio Coding 3
Mode extension : CM (complete main)
Codec ID : 2000
Duration : 1h 33mn
Bit rate mode : Constant
Bit rate : 384 Kbps
Channel(s) : 6 channels
Channel positions : Front: L C R, Side: L R, LFE
Sampling rate : 48.0 KHz
Bit depth : 16 bits
Compression mode : Lossy
Stream size : 256 MiB (25%)
Alignment : Split accross interleaves
Interleave, duration : 40 ms (1.00 video frame)
Interleave, preload duration : 500 ms

Скриншоты





Последний раз редактировалось: akmal2295 (2015-03-19 14:42), всего редактировалось 2 раз(а)

Создавать темы 17-Мар-2015 09:49

[Профиль]  [ЛС] 

fdjon

Стаж: 2 года 5 месяцев

Сообщений: 25

Симпатии: 3

Скриншоты должны быть одного размера!!! akmal2295 исправьте!!

Создавать темы 17-Мар-2015 19:21

[Профиль]  [ЛС] 

Grock

Стаж: 6 лет 6 месяцев

Сообщений: 637

Симпатии: 113

akmal2295, Сделайте оригинальные скриншоты с самого фильма, не надо брать их с Кинопоиска.
Вот инструкция для создания скриншотов - Как сделать скриншоты, узнать тех. данные (включая MediaInfo) видео-файла с помощью Media Player Classic?

Создавать темы 17-Мар-2015 21:11

[Профиль]  [ЛС] 

iddqd

Стаж: 3 года 7 месяцев

Сообщений: 16

Симпатии: 15

Спасибо за релиз!

Создавать темы 01-Янв-2016 23:01

[Профиль]  [ЛС] 
Показать сообщения:    
Ответить на тему

Текущее время: 23-Авг 20:48

Часовой пояс: UTC + 5



Вы не можете начинать темы
Вы не можете отвечать на сообщения
Вы не можете редактировать свои сообщения
Вы не можете удалять свои сообщения
Вы не можете голосовать в опросах
Вы не можете прикреплять файлы к сообщениям
Вы не можете скачивать файлы