High School DxD OVA-3 / Демоны старшей школы ОВА-3 [1 из 1] [BDRip 720p] [RUS] [2015., комедия, этти] (Zendos & Eladiel)

Ответить на тему
 

SNIL ®

Стаж: 5 лет 9 месяцев

Сообщений: 2624

Симпатии: 341

High School DxD OVA-3
Демоны старшей школы ОВА-3
-
Год выпуска: 2015
Страна: Япония
Жанр: комедия, этти
Продолжительность: 1 эп. по 25 мин.-Озвучка:
  • Zendos & Eladiel
-Режиссёр: Янагисава Тэцуя
Автор оригинала: Исибуми Итиэй
Студия: TNK-Описание:
бонус к ограниченному эксклюзивному изданию третьего тома ранобэ High School DxD DX.1.-Качество: BDRip
Формат видео: mkv
Видео: [Ohys-Raws] x264 (8 bit), 1280x720, ~2400 Kbps, 23.976 fps
Аудио Russian: Vorbis, 48000Hz, ~500 Kbps, 2ch
Субтитры: надписи-

Подробные тех. данные

E:\Аниме\High_School_DxD_New_[13]_[ru]_[BD-Rip_720p]_[Zendos_&_Eladiel].mkv
   General
      Complete name : E:\Аниме\High_School_DxD_New_[13]_[ru]_[BD-Rip_720p]_[Zendos_&_Eladiel].mkv
      Format : Matroska
      File size : 488 MiB
      Duration : 23mn 41s
      Overall bit rate : 2 879 Kbps
      Encoded date : UTC 2015-03-14 18:56:38
      Writing application : mkvmerge v7.7.0 ('Six Voices') 64bit built on Feb 28 2015 23:39:33
      Writing library : libebml v1.3.1 + libmatroska v1.4.2
      Cover : Yes / Yes / Yes / Yes / Yes / Yes
   Video #1
      ID : 1
      Format : AVC
      Format/Info : Advanced Video Codec
      Format profile : [email protected]
      Format settings, CABAC : Yes
      Format settings, ReFrames : 4 frames
      Muxing mode : Container [email protected]
      Codec ID : V_MPEG4/ISO/AVC
      Duration : 23mn 41s
      Bit rate : 2 322 Kbps
      Width : 1 280 pixels
      Height : 720 pixels
      Display aspect ratio : 16:9
      Frame rate : 23.976 fps
      Color space : YUV
      Chroma subsampling : 4:2:0
      Bit depth : 8 bits
      Scan type : Progressive
      Bits/(Pixel*Frame) : 0.105
      Stream size : 393 MiB (81%)
      Writing library : x264 core 146 r2538 121396c
      Encoding settings : cabac=1 / ref=3 / deblock=1:0:0 / analyse=0x1:0x131 / me=umh / subme=9 / psy=1 / psy_rd=1.00:0.00 / mixed_ref=1 / me_range=32 / chroma_me=1 / trellis=1 / 8x8dct=0 / cqm=0 / deadzone=21,11 / fast_pskip=1 / chroma_qp_offset=-2 / threads=8 / lookahead_threads=1 / sliced_threads=0 / nr=0 / decimate=1 / interlaced=0 / bluray_compat=0 / constrained_intra=0 / bframes=16 / b_pyramid=2 / b_adapt=1 / b_bias=0 / direct=1 / weightb=1 / open_gop=0 / weightp=2 / keyint=240 / keyint_min=1 / scenecut=40 / intra_refresh=0 / rc_lookahead=40 / rc=crf / mbtree=1 / crf=17.0 / qcomp=0.60 / qpmin=0 / qpmax=69 / qpstep=4 / ip_ratio=1.40 / aq=1:1.00
   Audio #2
      ID : 2
      Format : Vorbis
      Format settings, Floor : 1
      Codec ID : A_VORBIS
      Duration : 23mn 41s
      Bit rate mode : Constant
      Bit rate : 500 Kbps
      Channel(s) : 2 channels
      Sampling rate : 48.0 KHz
      Stream size : 84.7 MiB (17%)
      Title : Zendos & Eladiel (Onibaku Group)
      Writing library : libVorbis 1.0 (UTC 2002-07-17)
      Language : Russian
   Text #3
      ID : 3
      Format : ASS
      Codec ID : S_TEXT/ASS
      Codec ID/Info : Advanced Sub Station Alpha
      Title : Надписи
      Language : Russian

Скриншоты



Последний раз редактировалось: SNIL (2015-03-17 22:05), всего редактировалось 2 раз(а)

Создавать темы 17-Мар-2015 21:06

[Профиль]  [ЛС] 

SNIL ®

Стаж: 5 лет 9 месяцев

Сообщений: 2624

Симпатии: 341

Лайкать не забываем

Создавать темы 17-Мар-2015 21:39

[Профиль]  [ЛС] 

surik

Стаж: 7 лет 5 месяцев

Сообщений: 61

Симпатии: 9

Я так понимаю что продолжение автор заливать не будет? (или всё из-за того что трекер моросил???)
За релиз конечно, СПАСИБО и + с меня!)
Пы.Сы: + оказ. здеся нету... ak ac

Создавать темы 24-Июл-2015 03:40

[Профиль]  [ЛС] 

SNIL ®

Стаж: 5 лет 9 месяцев

Сообщений: 2624

Симпатии: 341

surik, :) есть функция "Мне нравится"
P.S https://tas-ix.net/viewtopic.php?t=107756 вот продолжения (а это ОВА (после неё ОВЫ не выходили))

Создавать темы 24-Июл-2015 08:43

[Профиль]  [ЛС] 

surik

Стаж: 7 лет 5 месяцев

Сообщений: 61

Симпатии: 9

945359surik, :) есть функция "Мне нравится"
P.S https://tas-ix.net/viewtopic.php?t=107756 вот продолжения (а это ОВА (после неё ОВЫ не выходили))
Спасибо за ссылочку =) А кнопочку "Мне Нрав." я сразу же нажал)

Создавать темы 25-Июл-2015 00:22

[Профиль]  [ЛС] 
Показать сообщения:    
Ответить на тему

Текущее время: 22-Окт 22:34

Часовой пояс: UTC + 5



Вы не можете начинать темы
Вы не можете отвечать на сообщения
Вы не можете редактировать свои сообщения
Вы не можете удалять свои сообщения
Вы не можете голосовать в опросах
Вы не можете прикреплять файлы к сообщениям
Вы не можете скачивать файлы