Как создать скучную героиню / Saenai Heroine no Sodatekata (Камэй Канта) [TV] [Без хардсаба] [00-12 из 12] [RUS] [2015г., Комедия, Драма, Романтика, Школа HDTV-Rip] [720p]

Ответить на тему
 

SoluSoull ®

Стаж: 2 года 8 месяцев

Сообщений: 379

Симпатии: 452

Saenai Heroine no Sodatekata
Как создать скучную героиню-Производство: Япония
Год выпуска: 2015
Жанр: Комедия, Драма, Романтика, Школа
Тип: ТВ (12 эп.), 25 мин.-Перевод:
Озвучка от Fuurou & Shina (anidub)-Режиссёр: Камэй Канта
Автор оригинала: Маруто Фумиаки
Студия: A-1 Pictures-Описание: Томоя Аки — рядовой отаку, работающий на полставки только ради того, чтобы хватало денег для покупки аниме. Однажды во время весенних каникул он встречает прекрасную девушку, которая настолько западает ему в душу, что парень решает сделать её прототипом героини своего собственного симулятора свиданий. К созданию игры Томоя привлекает двух девушек из своей школы, а заодно выясняется, что таинственная незнакомка учится в его классе, только её почему-то никто не замечает.-Качество: HDTVrip \ Формат: MP4
Тип видео: без хардсаба
Видео: AVC, 1280х720(16/9), 1737 Kbps, 23.976fps, 8 bits
Аудио: AAC, 2 ch, 192кбит/с, 48000Hz-

Скриншоты

MI

General
Complete name : E:\Downloads\Saenai Heroine no Sodate-kata\[AniDub]_Saenai_Heroine_no_Sodate-kata_[00]_[720p_x264_Aac]_[Fuurou_Shina].mp4
Format : MPEG-4
Format profile : Base Media
Codec ID : isom
File size : 318 MiB
Duration : 22mn 59s
Overall bit rate mode : Variable
Overall bit rate : 1 933 Kbps
Encoded date : UTC 2015-01-09 21:35:42
Tagged date : UTC 2015-01-09 21:35:42
Writing application : Yamb 2.1.0.0 [http://yamb.unite-video.com]
Video
ID : 1
Format : AVC
Format/Info : Advanced Video Codec
Format profile : [email protected]
Format settings, CABAC : Yes
Format settings, ReFrames : 4 frames
Codec ID : avc1
Codec ID/Info : Advanced Video Coding
Duration : 22mn 59s
Bit rate : 1 737 Kbps
Maximum bit rate : 17.5 Mbps
Width : 1 280 pixels
Height : 720 pixels
Display aspect ratio : 16:9
Frame rate mode : Constant
Frame rate : 23.976 fps
Color space : YUV
Chroma subsampling : 4:2:0
Bit depth : 8 bits
Scan type : Progressive
Bits/(Pixel*Frame) : 0.079
Stream size : 286 MiB (90%)
Title : 264
Writing library : x264 core 129 r2245+729M 1a52e03
Encoding settings : cabac=1 / ref=4 / deblock=1:1:-1 / analyse=0x3:0x113 / me=umh / subme=9 / psy=1 / fade_compensate=0.00 / psy_rd=1.00:0.00 / mixed_ref=1 / me_range=24 / chroma_me=1 / trellis=2 / 8x8dct=1 / cqm=0 / deadzone=21,11 / fast_pskip=1 / chroma_qp_offset=-2 / threads=8 / lookahead_threads=1 / sliced_threads=0 / nr=0 / decimate=1 / interlaced=0 / bluray_compat=0 / constrained_intra=0 / fgo=0 / bframes=9 / b_pyramid=2 / b_adapt=2 / b_bias=0 / direct=1 / weightb=1 / open_gop=0 / weightp=2 / keyint=240 / keyint_min=24 / scenecut=40 / intra_refresh=0 / rc=crf / mbtree=0 / crf=18.5 / qcomp=0.72 / qpmin=0 / qpmax=69 / qpstep=4 / ip_ratio=1.40 / pb_ratio=1.30 / aq=1:0.85
Encoded date : UTC 2015-01-09 02:44:24
Tagged date : UTC 2015-01-09 21:35:44
Color primaries : BT.709
Transfer characteristics : BT.709
Matrix coefficients : BT.709
Color range : Limited
Audio
ID : 2
Format : AAC
Format/Info : Advanced Audio Codec
Format profile : LC
Codec ID : 40
Duration : 22mn 59s
Bit rate mode : Variable
Bit rate : 192 Kbps
Maximum bit rate : 201 Kbps
Channel(s) : 2 channels
Channel positions : Front: L R
Sampling rate : 48.0 KHz
Compression mode : Lossy
Stream size : 31.6 MiB (10%)
Language : Russian
Encoded date : UTC 2015-01-09 21:35:43
Tagged date : UTC 2015-01-09 21:35:44


Последний раз редактировалось: SoluSoull (2015-04-02 10:06), всего редактировалось 2 раз(а)

Создавать темы 18-Мар-2015 16:12

[Профиль]  [ЛС] 

SoluSoull ®

Стаж: 2 года 8 месяцев

Сообщений: 379

Симпатии: 452

всё

Создавать темы 02-Апр-2015 09:59

[Профиль]  [ЛС] 

Топик был перенесен из форума Аниме онгоинги в форум HD, HDTVRip
[email protected]

Создавать темы 02-Апр-2015 10:06

 

farik9193

Стаж: 5 лет

Сообщений: 501

Симпатии: 47

Очень понравилась как здесь реализовали анимации персонажей .

Создавать темы 27-Апр-2015 22:51

[Профиль]  [ЛС] 

FireHowler

Стаж: 4 года 6 месяцев

Сообщений: 270

Симпатии: 153

причём тут провайдер если я вчера у других качал аш 3 мб ???
1) Настройте teredo
2) Между узонлайн и sarkor, turon telecom, tps плохая скорость обмена. То есть вы можете скачивать на скорости 3мб у узонлайнцев и на 5-25 кб у других провайдеров.

Создавать темы 28-Апр-2015 22:43

[Профиль]  [ЛС] 
Показать сообщения:    
Ответить на тему

Текущее время: 20-Ноя 09:11

Часовой пояс: UTC + 5



Вы не можете начинать темы
Вы не можете отвечать на сообщения
Вы не можете редактировать свои сообщения
Вы не можете удалять свои сообщения
Вы не можете голосовать в опросах
Вы не можете прикреплять файлы к сообщениям
Вы не можете скачивать файлы