Дом Грез / Dream House (Джим Шеридан) [2011, США, Детектив,драма, BDRip] Dub

Ответить на тему
 

Warty ®

Стаж: 2 года 6 месяцев

Сообщений: 5

Симпатии: 7

Дом Грез / Dream House
Страна: США
Жанр: Детектив, драма
Год выпуска: 2011
Продолжительность: 01:30:49
Озвучивание: Дублированное
Режиссер: Джим Шеридан
В ролях: Дэниел Крэйг, Рэйчел Вайс, Наоми Уоттс и Мартон Чокаш.
Описание: Главный редактор журнала, писатель, Уилл Эйтентон, увольняется со своей должности и решает провести время в написании нового романа в своем новом загородном доме, с женой и двумя дочерьми Триш (7 лет) и Ди Ди (5 лет). За окном зима, ветер, и ветки бьющие в стекло. Семья живёт в уюте и тепле, не ожидая никаких неприятностей. Ночью Ди Ди видит в окне странного человека и очень пугается. Родители успокаивают её, объясняя, что она испугалась собственного отражения в окне и приняла его за незнакомца. Однако, когда Уилл утром выходит убирать снег — он замечает следы на снегу, ведущие прямо к окнам, глядя в которые можно было свободно наблюдать за девочками......
Доп. информация: Съёмки проходили в Ванкувере и Онтарио с февраля по апрель 2010 года.Дэниел Крэйг и Рэйчел Вайс тайно поженились после съемок фильма.
Качество видео: BDRip
Формат видео: AVI (XviD)
Видео:: 720x304px, 23.976fps, 1824Kbps
Аудио: Dolby AC3, 448kbps, 48.0KHz, 6(Ch)
Cубтитры: нет

MediaInfo

General
Complete name : G:\Кино\Dom.grez.BDRip.2011.avi
Format : AVI
Format/Info : Audio Video Interleave
File size : 1.45 GiB
Duration : 1h 30mn
Overall bit rate : 2 282 Kbps
Writing application : VirtualDubMod 1.5.10.2 (build 2540/release)
Writing library : VirtualDubMod build 2540/release
Video
ID : 0
Format : MPEG-4 Visual
Format profile : Advanced [email protected]
Format settings, BVOP : 1
Format settings, QPel : No
Format settings, GMC : No warppoints
Format settings, Matrix : Custom
Codec ID : XVID
Codec ID/Hint : XviD
Duration : 1h 30mn
Bit rate : 1 824 Kbps
Width : 720 pixels
Height : 304 pixels
Display aspect ratio : 2.35:1
Frame rate : 23.976 fps
Color space : YUV
Chroma subsampling : 4:2:0
Bit depth : 8 bits
Scan type : Progressive
Compression mode : Lossy
Bits/(Pixel*Frame) : 0.348
Stream size : 1.16 GiB (80%)
Writing library : XviD 1.2.1 (UTC 2008-12-04)
Audio
ID : 1
Format : AC-3
Format/Info : Audio Coding 3
Mode extension : CM (complete main)
Format settings, Endianness : Big
Codec ID : 2000
Duration : 1h 30mn
Bit rate mode : Constant
Bit rate : 448 Kbps
Channel(s) : 6 channels
Channel positions : Front: L C R, Side: L R, LFE
Sampling rate : 48.0 KHz
Bit depth : 16 bits
Compression mode : Lossy
Stream size : 291 MiB (20%)
Alignment : Aligned on interleaves
Interleave, duration : 42 ms (1.00 video frame)
Interleave, preload duration : 512 ms

Скриншоты





Последний раз редактировалось: Warty (2015-03-19 09:39), всего редактировалось 2 раз(а)

Создавать темы 18-Мар-2015 19:12

[Профиль]  [ЛС] 

vlacom

Стаж: 4 года 2 месяца

Сообщений: 44

Симпатии: 21

Скрины не соответствуют техданным

Создавать темы 18-Мар-2015 19:28

[Профиль]  [ЛС] 
Показать сообщения:    
Ответить на тему

Текущее время: 23-Сен 08:53

Часовой пояс: UTC + 5



Вы не можете начинать темы
Вы не можете отвечать на сообщения
Вы не можете редактировать свои сообщения
Вы не можете удалять свои сообщения
Вы не можете голосовать в опросах
Вы не можете прикреплять файлы к сообщениям
Вы не можете скачивать файлы