Всесильный Фафнир / Juuou Mujin no Fafnir (Кусакава Кэйдзё) [TV] [Без хардсаба] [01-12 из 12] [RUS] [2015г., комедия, этти, мистика, романтика, школа HDTV-Rip] [720p]

Ответить на тему
 

SoluSoull ®

Стаж: 2 года 7 месяцев

Сообщений: 379

Симпатии: 452

Juuou Mujin no Fafnir
Всесильный Фафнир-Производство: Япония
Год выпуска: 2015
Жанр: комедия, этти, мистика, романтика, школа
Тип: ТВ (12 эп.), 25 мин.-Перевод:
Озвучка от Ancord & Nika Lenina (anidub)-Режиссёр: Кусакава Кэйдзё
Автор оригинала: Цукаса
Студии: diomedea & Studio Blanc-Описание: Будущее. В наш мир извне приходят страшные монстроподобные существа не щадящие людей, которых прозвали Драконами. Началась война. Прошли года и люди смогли взять угрозу под контроль с помощью феномена вызванного этими самыми драконами. В след за ними в наш мир проникла и их магия и начали рождаться дети (исключительно девушки) с такими же волшебными силами как и драконы. Всех их собрали в особой школе обучающей пользоваться их силой и дали кодовое имя - "Ди". И вот, наша история начинается с того, когда на остров Мидгар, где находится эта самая школа приезжает парень.-Качество: HDTVrip \ Формат: MP4
Тип видео: без хардсаба
Видео: AVC, 1280х720(16/9), 1916 Kbps, 23.976fps, 8 bits
Аудио: AAC, 2 ch, 192кбит/с, 48000Hz-

Скриншоты

MI

General
Complete name : E:\Downloads\Juuou Mujin no Fafnir\[AniDub]_Juuou_Mujin_no_Fafnir_[01]_[720p_x264_Aac]_[Ancord_NikaLenina].mp4
Format : MPEG-4
Format profile : Base Media
Codec ID : isom
File size : 370 MiB
Duration : 24mn 30s
Overall bit rate mode : Variable
Overall bit rate : 2 112 Kbps
Encoded date : UTC 2015-01-11 17:13:38
Tagged date : UTC 2015-01-11 17:13:38
Writing application : Yamb 2.1.0.0 [http://yamb.unite-video.com]
Video
ID : 1
Format : AVC
Format/Info : Advanced Video Codec
Format profile : [email protected]
Format settings, CABAC : Yes
Format settings, ReFrames : 4 frames
Codec ID : avc1
Codec ID/Info : Advanced Video Coding
Duration : 24mn 30s
Bit rate : 1 916 Kbps
Maximum bit rate : 12.8 Mbps
Width : 1 280 pixels
Height : 720 pixels
Display aspect ratio : 16:9
Frame rate mode : Constant
Frame rate : 23.976 fps
Color space : YUV
Chroma subsampling : 4:2:0
Bit depth : 8 bits
Scan type : Progressive
Bits/(Pixel*Frame) : 0.087
Stream size : 336 MiB (91%)
Title : 264
Writing library : x264 core 129 r2245+729M 1a52e03
Encoding settings : cabac=1 / ref=4 / deblock=1:1:-1 / analyse=0x3:0x113 / me=umh / subme=9 / psy=1 / fade_compensate=0.00 / psy_rd=1.00:0.00 / mixed_ref=1 / me_range=24 / chroma_me=1 / trellis=2 / 8x8dct=1 / cqm=0 / deadzone=21,11 / fast_pskip=1 / chroma_qp_offset=-2 / threads=8 / lookahead_threads=1 / sliced_threads=0 / nr=0 / decimate=1 / interlaced=0 / bluray_compat=0 / constrained_intra=0 / fgo=0 / bframes=9 / b_pyramid=2 / b_adapt=2 / b_bias=0 / direct=1 / weightb=1 / open_gop=0 / weightp=2 / keyint=240 / keyint_min=24 / scenecut=40 / intra_refresh=0 / rc=crf / mbtree=0 / crf=18.5 / qcomp=0.72 / qpmin=0 / qpmax=69 / qpstep=4 / ip_ratio=1.40 / pb_ratio=1.30 / aq=1:0.85
Encoded date : UTC 2015-01-09 04:38:39
Tagged date : UTC 2015-01-11 17:13:56
Color primaries : BT.709
Transfer characteristics : BT.709
Matrix coefficients : BT.709
Color range : Limited
Audio
ID : 2
Format : AAC
Format/Info : Advanced Audio Codec
Format profile : LC
Codec ID : 40
Duration : 24mn 30s
Bit rate mode : Variable
Bit rate : 192 Kbps
Maximum bit rate : 201 Kbps
Channel(s) : 2 channels
Channel positions : Front: L R
Sampling rate : 48.0 KHz
Compression mode : Lossy
Stream size : 33.7 MiB (9%)
Language : Russian
Encoded date : UTC 2015-01-11 17:13:54
Tagged date : UTC 2015-01-11 17:13:56


Последний раз редактировалось: SoluSoull (2015-04-03 17:33), всего редактировалось 3 раз(а)

Создавать темы 18-Мар-2015 21:35

[Профиль]  [ЛС] 

SoluSoull ®

Стаж: 2 года 7 месяцев

Сообщений: 379

Симпатии: 452

10

Создавать темы 22-Мар-2015 08:26

[Профиль]  [ЛС] 

Топик был перенесен из форума Аниме онгоинги в форум HD, HDTVRip
SNIL

Создавать темы 03-Апр-2015 17:33

 
Показать сообщения:    
Ответить на тему

Текущее время: 22-Окт 00:42

Часовой пояс: UTC + 5



Вы не можете начинать темы
Вы не можете отвечать на сообщения
Вы не можете редактировать свои сообщения
Вы не можете удалять свои сообщения
Вы не можете голосовать в опросах
Вы не можете прикреплять файлы к сообщениям
Вы не можете скачивать файлы