Во все тяжкие / Breaking Bad / Сезон: 3 / Серии: 1-13 из 13 + Доп. материалы (Винс Гиллиган) [2010, триллер, драма, криминал, WEB-DL 720p] (MVO : студия LostFilm) (MVO : студия Кубик в Кубе) (VO : студия foxlight) (rus sub + Original)

Ответить на тему
 

IIpu3pak ®

Стаж: 5 лет 8 месяцев

Сообщений: 258

Симпатии: 53

Во все тяжкие / Breaking Bad
Сезон 3

Год выпуска: 2010
Страна: США
Жанр: триллер, драма, криминал
Продолжительность: 00:48:00
Перевод: 1) Профессиональный (многоголосый, закадровый) - студия LostFilm
2) Профессиональный (многоголосый, закадровый) - студия Кубик в Кубе
3) Любительский (одноголосый, закадровый) - foxlight
4) Оригинал (английский)
Субтитры: Русские / Английские
Режиссёр: Винс Гиллиган
В ролях: Брайан Крэнстон, Анна Ганн, Аарон Пол, Дин Норрис, Бетси Брандт, Эр Джей Митти
Описание: Школьный учитель химии Уолтер Уайт узнаёт, что болен раком лёгких. Учитывая сложное финансовое состояние дел семьи, а также перспективы, Уолтер решает заняться изготовлением метамфетамина. Для этого он привлекает своего бывшего ученика Джесси Пинкмана, когда-то исключённого из школы при активном содействии Уайта. Пинкман сам занимался «варкой мета», но накануне, в ходе рейда ОБН, он лишился подельника и лаборатории…
Ссылки на предыдущие два сезона:
Сезон 1
Сезон 2
Качество: WEB-DL 720p
Формат: MKV
Видео кодек: XviD
Аудио кодек: AC3
Видео: 1280X720 (1.77:1), 23.976 fps, x264, ~4000 kbps avg
Аудио#1: 48 kHz, AC3, 3/2 (L,C,R,l,r) + LFE ch, ~448.00 kbps avg | Русский, многоголосый закадровый (LostFilm)
Аудио#2: 48 kHz, AC3, 3/2 (L,C,R,l,r) + LFE ch, ~448.00 kbps avg | Русский, многоголосый закадровый (Кубик в Кубе)
Аудио#3: 48 kHz, AC3, 3/2 (L,C,R,l,r) + LFE ch, ~448.00 kbps avg | Русский, одноголосый закадровый (foxlight)
Аудио#4: 48 kHz, AC3, 3/2 (L,C,R,l,r) + LFE ch, ~448.00 kbps avg | Английский, оригинальная дорожка
 

Знаете ли Вы, что...

Сериал вошел в Книгу рекордов Гиннесcа 2014 года как «сериал с самым высоким рейтингом» после того, как он набрал 99 баллов из 100 на портале MetaCritic.
Первый сезон должен был состоять из девяти эпизодов, но по причине забастовки сценаристов было снято только семь.
Главный герой сериала Уолтер Уайт в криминальном мире известен под псевдонимом Гейзенберг (либо Хайзенберг) (нем. Heisenberg), отсылающим к имени нобелевского лауреата по физике 1932 года Вернера Карла Гейзенберга (нем. Werner Karl Heisenberg).
Во вступительных титрах показываются: формула метамфетамина (C10 H15 N); его молекулярная масса 149,24; в заглавных буквах имен и в самой заставке сериала демонстрируются некоторые химические элементы.
Исполнитель роли Уолтера-младшего RJ Митт, как и его персонаж, живет с церебральным параличом.
О сериале высоко отозвался писатель Стивен Кинг, сказав, что это лучший сценарий на ТВ.
Фамилии Уолтера и Джесси — Уайт (англ. White) и Пинкман (англ. Pinkman) — являются отсылкой к фильму Квентина Тарантино «Бешеные псы» (1991).
В комментариях к DVD с первым сезоном Винс Гиллиган рассказал, что в первоначальном варианте персонаж Джесси Пинкмана должен был умереть к концу сезона. Однако создатели изменили решение, оценив игру Аарона Пола.
Во 2-ом эпизоде 1-го сезона (Cat`s in the bag) когда Джесси сидит и думает, что делать с Эмилио, по телевизору идет фильм «Фокус-покус» (1949).
Сайт адвоката Сола Гудмана (bettercallsaul.com) существует на самом деле.
Сайт «Спасем Уолтера Уайта», созданный во втором сезоне Уолтером-младшим, действительно существует (http://www.savewalterwhite.com/)
Во время съемок эпизода «Полумеры» Венди должна была изображать проститутку на улице. Один из случайных прохожих принял ее за настоящую «жрицу любви» и пытался договориться о цене. В связи с этим недоразумением съемки пришлось немного отложить
В 13 серии 3 сезона в квартире Гейла можно заметить книгу Стивена Кинга, сборник рассказов «Все предельно»

Список серий

01. No Mas
02. Caballo sin nombre
03. I.F.T.
04. Green Light
05. Mas
06. Sunset
07. One Minute
08. I See You
09. Kafkaesque
10. Fly
11. Abiquiu
12. Half Measures
13. Full Measure

MI

General
Unique ID : 196703602577932640733952500167327193104 (0x93FBBC5FD679A2AB837EE0E36F5D9810)
Complete name : D:\Breaking Bad Season 3 HD\Breaking.Bad.3x01.No.Mas.WEB-DL.720p.AC3.mkv
Format : Matroska
Format version : Version 2
File size : 1.89 GiB
Duration : 47mn 12s
Overall bit rate : 5 722 Kbps
Movie name : Breaking Bad 3x01 - No Mas @ RuTracker.org by -lostrator-
Encoded date : UTC 2010-09-12 06:43:12
Writing application : mkvmerge v4.3.0 ('Escape from the Island') сборка от Sep 5 2010 10:30:51
Writing library : libebml v1.0.0 + libmatroska v1.0.0
Attachment : Imported font from Breaking.Bad.S03E01.720p rus.ass / Imported font from Breaking.Bad.S03E01.720p rus.ass / Imported font from Breaking.Bad.S03E01.720p rus.ass / Imported font from Breaking.Bad.S03E01.720p rus.ass / Imported font from Breaking.Bad.S03E01.720p rus.ass
Video
ID : 1
Format : AVC
Format/Info : Advanced Video Codec
Format profile : [email protected]
Format settings, CABAC : No
Format settings, ReFrames : 2 frames
Codec ID : V_MPEG4/ISO/AVC
Duration : 47mn 11s
Bit rate : 3 880 Kbps
Width : 1 280 pixels
Height : 720 pixels
Display aspect ratio : 16:9
Frame rate mode : Constant
Frame rate : 23.976 fps
Color space : YUV
Chroma subsampling : 4:2:0
Bit depth : 8 bits
Scan type : Progressive
Bits/(Pixel*Frame) : 0.176
Stream size : 1.28 GiB (68%)
Language : English
Default : No
Forced : Yes
Color primaries : BT.709
Transfer characteristics : BT.709
Matrix coefficients : BT.709
Audio #1
ID : 2
Format : AC-3
Format/Info : Audio Coding 3
Mode extension : CM (complete main)
Format settings, Endianness : Big
Codec ID : A_AC3
Duration : 47mn 12s
Bit rate mode : Constant
Bit rate : 448 Kbps
Channel(s) : 6 channels
Channel positions : Front: L C R, Side: L R, LFE
Sampling rate : 48.0 KHz
Bit depth : 16 bits
Compression mode : Lossy
Stream size : 151 MiB (8%)
Title : Dolby Digital 5.1 @ 448 kbps @ Lostfilm
Language : Russian
Default : No
Forced : No
Audio #2
ID : 3
Format : AC-3
Format/Info : Audio Coding 3
Mode extension : CM (complete main)
Format settings, Endianness : Big
Codec ID : A_AC3
Duration : 47mn 12s
Bit rate mode : Constant
Bit rate : 448 Kbps
Channel(s) : 6 channels
Channel positions : Front: L C R, Side: L R, LFE
Sampling rate : 48.0 KHz
Bit depth : 16 bits
Compression mode : Lossy
Stream size : 151 MiB (8%)
Title : Dolby Digital 5.1 @ 448 kbps @ Kubik-V-Kube
Language : Russian
Default : No
Forced : No
Audio #3
ID : 4
Format : AC-3
Format/Info : Audio Coding 3
Mode extension : CM (complete main)
Format settings, Endianness : Big
Codec ID : A_AC3
Duration : 47mn 12s
Bit rate mode : Constant
Bit rate : 448 Kbps
Channel(s) : 6 channels
Channel positions : Front: L C R, Side: L R, LFE
Sampling rate : 48.0 KHz
Bit depth : 16 bits
Compression mode : Lossy
Stream size : 151 MiB (8%)
Title : Dolby Digital 5.1 @ 448 kbps @ foxlight
Language : Russian
Default : No
Forced : No
Audio #4
ID : 5
Format : AC-3
Format/Info : Audio Coding 3
Mode extension : CM (complete main)
Format settings, Endianness : Big
Codec ID : A_AC3
Duration : 47mn 12s
Bit rate mode : Constant
Bit rate : 384 Kbps
Channel(s) : 6 channels
Channel positions : Front: L C R, Side: L R, LFE
Sampling rate : 48.0 KHz
Bit depth : 16 bits
Compression mode : Lossy
Stream size : 130 MiB (7%)
Title : Dolby Digital 5.1 @ 384 kbps
Language : English
Default : No
Forced : No
Text #1
ID : 6
Format : ASS
Codec ID : S_TEXT/ASS
Codec ID/Info : Advanced Sub Station Alpha
Compression mode : Lossless
Title : Russian @ ASS @ Forced
Language : Russian
Default : Yes
Forced : No
Text #2
ID : 7
Format : ASS
Codec ID : S_TEXT/ASS
Codec ID/Info : Advanced Sub Station Alpha
Compression mode : Lossless
Title : Russian @ ASS @ Full
Language : Russian
Default : No
Forced : No
Text #3
ID : 8
Format : ASS
Codec ID : S_TEXT/ASS
Codec ID/Info : Advanced Sub Station Alpha
Compression mode : Lossless
Title : English @ ASS
Language : English
Default : No
Forced : No

Скриншоты













Создавать темы 19-Мар-2015 01:37

[Профиль]  [ЛС] 

JustSmile

Стаж: 7 лет 5 месяцев

Сообщений: 47

Симпатии: 3

Спасибо за релиз, давно хотел посмотреть этот сериал, а тут как раз в HD. Еще сезоны будут?

Создавать темы 13-Апр-2015 00:19

[Профиль]  [ЛС] 

IIpu3pak ®

Стаж: 5 лет 8 месяцев

Сообщений: 258

Симпатии: 53

JustSmile, всегда пожалуйста! Будет еще четвертый на днях. Пятого, увы, нет. Также могу выложить спин-офф "Лучше звоните Солу" в HD.

Создавать темы 13-Апр-2015 01:18

[Профиль]  [ЛС] 
Показать сообщения:    
Ответить на тему

Текущее время: 23-Окт 07:44

Часовой пояс: UTC + 5



Вы не можете начинать темы
Вы не можете отвечать на сообщения
Вы не можете редактировать свои сообщения
Вы не можете удалять свои сообщения
Вы не можете голосовать в опросах
Вы не можете прикреплять файлы к сообщениям
Вы не можете скачивать файлы