Специалисты / Техники / The Technicians / Criminal Designer (Ким Хон Сон / Hong-seon Kim) [2014, Южная Корея, криминал, комедия, HDTVRip] (MVO : GREEN TEA)

Ответить на тему
 

bbk ®

Стаж: 7 лет 1 месяц

Сообщений: 435

Симпатии: 479

Специалисты / Техники / The Technicians / Criminal Designer
Страна: Южная Корея
Жанр: криминал, комедия
Год выпуска: 2014
Продолжительность: 01:57
Перевод: Многоголосый (закадровый) GREEN TEA
Режиссер: Ким Хон Сон / Hong-seon Kim
В ролях: Ким Ён Чхоль, Син Гу, Ко Чан Сок, Ким У Бин, Ли Хён У (1993), Чо Даль Хван, Чон Ман Сик, Им Чжу Хван и др.
Описание: История о приключениях лучшего взломщика сейфов (Ким У Бин), хакера (Ли Хён У) и их друзей.
 
Качество видео: HDTVRip
Формат видео: AVI
Видео: XviD, 1280x720, 1585 Kbps, 23.976 fps
Аудио: MP3, 192 Kbps, 2 ch, 48 kHz

MediaInfo

General
Complete name : [GREEN TEA] Специалисты 720p.avi
Format : AVI
Format/Info : Audio Video Interleave
File size : 1.91 GiB
Duration : 2h 2mn
Overall bit rate : 2 229 Kbps
Writing application : VirtualDubMod 1.5.10.2 (build 2540/release)
Writing library : VirtualDubMod build 2540/release
Video #0
ID : 0
Format : AVC
Format/Info : Advanced Video Codec
Format profile : [email protected]
Format settings, CABAC : Yes
Format settings, ReFrames : 4 frames
Codec ID : H264
Duration : 2h 2mn
Bit rate : 1 940 Kbps
Nominal bit rate : 2 988 Kbps
Width : 1 280 pixels
Height : 720 pixels
Display aspect ratio : 16:9
Frame rate : 29.970 fps
Color space : YUV
Chroma subsampling : 4:2:0
Bit depth : 8 bits
Scan type : Progressive
Bits/(Pixel*Frame) : 0.070
Stream size : 1.67 GiB (87%)
Writing library : x264 core 116 r2057kMod 0ba8a9c
Encoding settings : cabac=1 / ref=4 / deblock=1:0:0 / analyse=0x3:0x13 / me=umh / subme=7 / psy=1 / fade_compensate=0.00 / psy_rd=1.00:0.00 / mixed_ref=1 / me_range=16 / chroma_me=1 / trellis=1 / 8x8dct=1 / cqm=0 / deadzone=21,11 / fast_pskip=1 / chroma_qp_offset=-2 / threads=4 / sliced_threads=1 / slices=4 / nr=0 / decimate=1 / interlaced=0 / bluray_compat=0 / constrained_intra=0 / bframes=0 / weightp=2 / keyint=250 / keyint_min=25 / scenecut=40 / intra_refresh=0 / rc=abr / mbtree=0 / bitrate=2988 / ratetol=1.0 / qcomp=0.60 / qpmin=10 / qpmax=51 / qpstep=4 / ip_ratio=1.40 / aq=1:1.00
Audio #1
ID : 1
Format : MPEG Audio
Format version : Version 1
Format profile : Layer 3
Mode : Joint stereo
Codec ID : 55
Codec ID/Hint : MP3
Duration : 1h 57mn
Bit rate mode : Constant
Bit rate : 192 Kbps
Channel(s) : 2 channels
Sampling rate : 48.0 KHz
Compression mode : Lossy
Stream size : 161 MiB (8%)
Alignment : Aligned on interleaves

Скриншот c названием фильма

Скриншоты

Создавать темы 19-Мар-2015 02:29

[Профиль]  [ЛС] 

-OdilmaX-

Стаж: 2 года 9 месяцев

Сообщений: 425

Симпатии: 854

Ого ) как фильмец ?

Создавать темы 19-Мар-2015 17:22

[Профиль]  [ЛС] 

Davron1402

Стаж: 3 года 11 месяцев

Сообщений: 136

Симпатии: 122

спасибо за кино

Создавать темы 20-Мар-2015 16:56

[Профиль]  [ЛС] 
Показать сообщения:    
Ответить на тему

Текущее время: 18-Дек 06:23

Часовой пояс: UTC + 5



Вы не можете начинать темы
Вы не можете отвечать на сообщения
Вы не можете редактировать свои сообщения
Вы не можете удалять свои сообщения
Вы не можете голосовать в опросах
Вы не можете прикреплять файлы к сообщениям
Вы не можете скачивать файлы