Кто вы, мистер Брукс? / Mr. Brooks (Брюс А. Эванс) [2007, США, триллер, драма, криминал, детектив, BDRip] (Dub) (Sub Rus + Original Rus)

Ответить на тему
 

1eg10ner ®

Стаж: 2 года 8 месяцев

Сообщений: 3

Симпатии: 2

Кто вы, мистер Брукс? / Mr. Brooks
Страна: США
Жанр: триллер, драма, криминал, детектив
Год выпуска: 2007
Продолжительность: 2:00:50
Перевод: Профессиональный (дублированный)
Cубтитры: русские
Оригинальная аудиодорожка: русский
Режиссер: Брюс А. Эванс
В ролях: Кевин Костнер, Деми Мур, Дейн Кук, Уильям Хёрт, Марг Хельгенбергер, Рубен Сантьяго-Хадсон, Даниэль Панабэйкер, Аиша Хиндс, Линдси Краус, Джейсон Льюис
Описание: Уважаемый бизнесмен и отец семейства, мистер Брукс скрывает тайну. За фасадом заботливого мужа и нежного отца скрывается жестокий убийца. На протяжении долгого времени эти две личности безуспешно борются между собой, и ни одна из них не может одержать верх. В результате убийства продолжаются, и, кажется, ничто не может оборвать эту кровавую цепь преступлений.
Однако Бруксу не повезло. Свидетелем его последнего злодеяния становится сумасшедший фотограф. Он начинает шантажировать преступника, но у него особые требования. В отличие от обычных шантажистов, фотографа не интересуют деньги. Он хочет присутствовать при следующих убийствах.
У героя остается сомнительный выбор — пойти на поводу у шантажиста или найти в себе силы победить свой порок и вернуться к нормальной жизни.
Качество видео: BDRip
Формат видео: MKV
Видео: BDRip 1080p, H264, 1080x584p, 4235 kb/s
Аудио: AC3 5.1, 384 kb/s (6 ch), 48 Кгц

MediaInfo

General
Unique ID : 174988244875513905782840866285767821013 (0x83A5829416AACC709C33F7D17AE306D5)
Complete name : D:\Мои документы\Видео\Фильмы\Mr.Brooks.mkv
Format : Matroska
Format version : Version 2
File size : 3.57 GiB
Duration : 2h 0mn
Overall bit rate : 4 235 Kbps
Movie name : Mr Brooks 2007 720p BluRay DTS x264-ESiR
Encoded date : UTC 2011-02-21 18:16:02
Writing application : mkvmerge v4.0.0 ('The Stars were mine') сборка от Jun 6 2010 16:18:42
Writing library : libebml v1.0.0 + libmatroska v1.0.0
Video
ID : 1
Format : AVC
Format/Info : Advanced Video Codec
Format profile : [email protected]
Format settings, CABAC : Yes
Format settings, ReFrames : 13 frames
Codec ID : V_MPEG4/ISO/AVC
Duration : 2h 0mn
Bit rate : 3 254 Kbps
Width : 1 080 pixels
Height : 584 pixels
Display aspect ratio : 1.85:1
Frame rate mode : Constant
Frame rate : 23.976 fps
Color space : YUV
Chroma subsampling : 4:2:0
Bit depth : 8 bits
Scan type : Progressive
Bits/(Pixel*Frame) : 0.215
Stream size : 2.75 GiB (77%)
Writing library : x264 core 112 r1834 a51816a
Encoding settings : cabac=1 / ref=13 / deblock=1:-3:-3 / analyse=0x3:0x113 / me=umh / subme=10 / psy=1 / psy_rd=0.95:0.10 / mixed_ref=1 / me_range=48 / chroma_me=1 / trellis=2 / 8x8dct=1 / cqm=0 / deadzone=21,11 / fast_pskip=1 / chroma_qp_offset=-3 / threads=6 / sliced_threads=0 / nr=0 / decimate=1 / interlaced=0 / constrained_intra=0 / bframes=8 / b_pyramid=2 / b_adapt=2 / b_bias=0 / direct=1 / weightb=1 / open_gop=0 / weightp=2 / keyint=250 / keyint_min=23 / scenecut=40 / intra_refresh=0 / rc_lookahead=90 / rc=crf / mbtree=0 / crf=18.5 / qcomp=0.65 / qpmin=0 / qpmax=51 / qpstep=4 / vbv_maxrate=50000 / vbv_bufsize=62500 / crf_max=0.0 / ip_ratio=1.40 / pb_ratio=1.30 / aq=1:0.80 / zones=164605,173662,q=35 / nal_hrd=none
Language : English
Default : No
Forced : No
Audio #1
ID : 2
Format : AC-3
Format/Info : Audio Coding 3
Mode extension : CM (complete main)
Format settings, Endianness : Big
Codec ID : A_AC3
Duration : 2h 0mn
Bit rate mode : Constant
Bit rate : 448 Kbps
Channel(s) : 6 channels
Channel positions : Front: L C R, Side: L R, LFE
Sampling rate : 48.0 KHz
Bit depth : 16 bits
Compression mode : Lossy
Stream size : 387 MiB (11%)
Title : Dub
Language : Russian
Default : Yes
Forced : No
Audio #2
ID : 3
Format : AC-3
Format/Info : Audio Coding 3
Mode extension : CM (complete main)
Format settings, Endianness : Big
Codec ID : A_AC3
Duration : 2h 0mn
Bit rate mode : Constant
Bit rate : 448 Kbps
Channel(s) : 6 channels
Channel positions : Front: L C R, Side: L R, LFE
Sampling rate : 48.0 KHz
Bit depth : 16 bits
Compression mode : Lossy
Stream size : 387 MiB (11%)
Title : Original
Language : English
Default : No
Forced : No
Text #1
ID : 4
Format : UTF-8
Codec ID : S_TEXT/UTF8
Codec ID/Info : UTF-8 Plain Text
Language : Russian
Default : No
Forced : No
Text #2
ID : 5
Format : UTF-8
Codec ID : S_TEXT/UTF8
Codec ID/Info : UTF-8 Plain Text
Language : English
Default : No
Forced : No

Скриншоты









Последний раз редактировалось: 1eg10ner (2015-03-19 12:05), всего редактировалось 2 раз(а)

Создавать темы 19-Мар-2015 04:18

[Профиль]  [ЛС] 

Топик был перенесен из форума Фильмы до 2010 в форум HD-AVC
Grock

Создавать темы 19-Мар-2015 09:43

 

Grock

Стаж: 6 лет 9 месяцев

Сообщений: 637

Симпатии: 113

1eg10ner, Скриншоты должны быть одного размера, в данном случае это 1080x584px как указано у вас в тех.данных.
Вот FAQ для быстрого создания скриншотов с оригинального файла -Как сделать скриншоты?

Создавать темы 19-Мар-2015 09:45

[Профиль]  [ЛС] 
Показать сообщения:    
Ответить на тему

Текущее время: 20-Ноя 10:59

Часовой пояс: UTC + 5



Вы не можете начинать темы
Вы не можете отвечать на сообщения
Вы не можете редактировать свои сообщения
Вы не можете удалять свои сообщения
Вы не можете голосовать в опросах
Вы не можете прикреплять файлы к сообщениям
Вы не можете скачивать файлы