Палата / The Ward (Джон Карпентер) [2010 г., США, ужасы, триллер, BDRip-AVC]DUB + orig (Eng)

Ответить на тему
 

Guliver ®

Стаж: 2 года 7 месяцев

Сообщений: 9

Симпатии: 3

Палата / The Ward-

Год: 2010
Страна: США-Жанр: ужасы, триллер-Режиссер: Джон Карпентер-Продолжительность: 01:28:55
Перевод: Профессиональный (полный дубляж)
Оригинальная аудио дорожка: Английский
Субтитры: Русский, Английский / UTF-8-В главных ролях:
Эмбер Хёрд, Мэми Гаммер, Даниэль Панабэйкер, Лора Ли, Линдси Фонсека, Мика Бурем, Джаред Харрис, Сали Сейлер, Сузанна Берни, Дэн Андерсон-Роли дублировали:
Мария Иващенко, Анна Штукатурова, Анастасия Жаркова, Екатерина Виноградова, Михаил Тихонов-Описание:
Кристен проходит лечение в психиатрической лечебнице. Вместе с ней проходят лечение еще четыре девушки. По ночам, когда больница погружается во тьму, она слышит странные пугающие звуки и понимает, что они тут не одни. Одна за другой девушки начинают исчезать, и Кристен понимает, что должна как можно скорее выбраться отсюда. Пытаясь сбежать, она понимает, что истинная природа звуков намного ужаснее, чем могло показаться вначале.-Возрастное ограничение: Зрителям, достигшим 16 лет-Рейтинг (КиноПоиск): 5.816-Качество: BDRip-AVC
Формат: MKV
Видео кодек: x.264
Аудио кодек: AC-3
Видео: x.264: 1024 x 436, 2547 Kbps, 23.976 fps
Аудио 1: AC-3: 6 channels, 384 Kbps, 48.0 KHz | [Rus]
Аудио 2: AC-3: 6 channels, 384 Kbps, 48.0 KHz | [Eng]-

Скриншоты



-

MI

General
Unique ID : 179326293093568339617297540774343150479 (0x86E8FCDE6541A2A5BA4E412AFECF0B8F)
Format : Matroska
Format version : Version 2
File size : 2.06 GiB
Duration : 1h 28mn
Overall bit rate : 3 316 Kbps
Encoded date : UTC 2013-07-15 15:49:01
Writing application : mkvmerge v6.2.0 ('Promised Land') built on Apr 28 2013 12:22:01
Writing library : libebml v1.3.0 + libmatroska v1.4.0
Video
ID : 1
Format : AVC
Format/Info : Advanced Video Codec
Format profile : [email protected]
Format settings, CABAC : Yes
Format settings, ReFrames : 10 frames
Codec ID : V_MPEG4/ISO/AVC
Bit rate : 2 547 Kbps
Width : 1 024 pixels
Height : 436 pixels
Display aspect ratio : 2.35:1
Frame rate mode : Variable
Original frame rate : 23.976 fps
Color space : YUV
Chroma subsampling : 4:2:0
Bit depth : 8 bits
Scan type : Progressive
Bits/(Pixel*Frame) : 0.238
Title : F-HD
Writing library : x264 core 129 r2245+704+35 dbbd7a1 tMod [[email protected]:2:0 X86_64]
Encoding settings : cabac=1 / ref=10 / deblock=1:-2:-2 / analyse=0x3:0x133 / me=tesa / subme=11 / psy=1 / fade_compensate=0.00 / psy_rd=1.00:0.15 / mixed_ref=1 / me_range=32 / chroma_me=1 / trellis=2 / 8x8dct=1 / cqm=0 / deadzone=21,11 / fast_pskip=0 / chroma_qp_offset=-3 / threads=4 / lookahead_threads=1 / sliced_threads=0 / nr=0 / decimate=1 / interlaced=0 / bluray_compat=0 / constrained_intra=0 / fgo=0 / bframes=10 / b_pyramid=2 / b_adapt=2 / b_bias=0 / direct=2 / weightb=1 / open_gop=1 / weightp=2 / keyint=240 / keyint_min=23 / scenecut=40 / intra_refresh=0 / rc_lookahead=50 / rc=2pass / mbtree=1 / bitrate=2547 / ratetol=1.0 / qcomp=0.60 / qpmin=0 / qpmax=69 / qpstep=4 / cplxblur=20.0 / qblur=0.5 / vbv_maxrate=40000 / vbv_bufsize=40000 / nal_hrd=none / ip_ratio=1.40 / aq=1:0.90
Language : English
Default : Yes
Forced : No
Audio #1
ID : 2
Format : AC-3
Format/Info : Audio Coding 3
Mode extension : CM (complete main)
Format settings, Endianness : Big
Codec ID : A_AC3
Duration : 1h 28mn
Bit rate mode : Constant
Bit rate : 384 Kbps
Channel(s) : 6 channels
Channel positions : Front: L C R, Side: L R, LFE
Sampling rate : 48.0 KHz
Bit depth : 16 bits
Compression mode : Lossy
Stream size : 244 MiB (12%)
Language : Russian
Default : Yes
Forced : No
Audio #2
ID : 3
Format : AC-3
Format/Info : Audio Coding 3
Mode extension : CM (complete main)
Format settings, Endianness : Big
Codec ID : A_AC3
Duration : 1h 28mn
Bit rate mode : Constant
Bit rate : 384 Kbps
Channel(s) : 6 channels
Channel positions : Front: L C R, Side: L R, LFE
Sampling rate : 48.0 KHz
Bit depth : 16 bits
Compression mode : Lossy
Stream size : 244 MiB (12%)
Language : English
Default : No
Forced : No
Text #1
ID : 4
Format : UTF-8
Codec ID : S_TEXT/UTF8
Codec ID/Info : UTF-8 Plain Text
Language : Russian
Default : No
Forced : No
Text #2
ID : 5
Format : UTF-8
Codec ID : S_TEXT/UTF8
Codec ID/Info : UTF-8 Plain Text
Language : English
Default : No
Forced : No

Создавать темы 19-Мар-2015 07:20

[Профиль]  [ЛС] 

Топик был перенесен из форума Тестовый форум в форум HD-AVC
Guliver

Создавать темы 19-Мар-2015 07:21

 

Grock

Стаж: 6 лет 8 месяцев

Сообщений: 637

Симпатии: 113

Guliver, Отличный фильм, спасибо

Создавать темы 19-Мар-2015 09:48

[Профиль]  [ЛС] 

vlacom

Стаж: 4 года 3 месяца

Сообщений: 44

Симпатии: 21

Guliver, респект за фильм!!!!

Создавать темы 20-Мар-2015 18:05

[Профиль]  [ЛС] 
Показать сообщения:    
Ответить на тему

Текущее время: 20-Окт 04:35

Часовой пояс: UTC + 5



Вы не можете начинать темы
Вы не можете отвечать на сообщения
Вы не можете редактировать свои сообщения
Вы не можете удалять свои сообщения
Вы не можете голосовать в опросах
Вы не можете прикреплять файлы к сообщениям
Вы не можете скачивать файлы