Бабник / Spread (Дэвид Маккензи) [2008, США, драма, мелодрама, комедия, DVDRip-AVC] (Dub) (Sub Rus + Original Rus)

Ответить на тему
 

1eg10ner ®

Стаж: 2 года 5 месяцев

Сообщений: 3

Симпатии: 2

Бабник / Spread
Страна: США
Жанр: драма, мелодрама, комедия
Год выпуска: 2008
Продолжительность: 1:33:05
Перевод: Профессиональный (дублированный)
Cубтитры: русские
Оригинальная аудиодорожка: русский
Режиссер: Дэвид Маккензи
В ролях: Эштон Кутчер, Энн Хеч, Маргарита Левиева, Себастьян Стэн, Эшли Джонсон, Соня Роквэлл, Рейчел Блэнчард, Шэйн Бролли, Эрик Бальфур, Мария Кончита Алонсо
Описание: Никки молод, неотразим и пользуется безотказным вниманием представительниц противоположного пола. Его роман с Самантой основан исключительно на взаимном интересе. Никки интересует ее кредитная карточка и шикарный особняк, а успешную, но одинокую Саманту — безудержный дикий секс. Но когда Никки встречает Хизер, у циничного жиголо что-то переключается в голове и в сердце…
Качество видео: DVDRip-AVC
Формат видео: AVI
Видео: MPEG-4 Visual, 704 x 304 (2.35:1), 25.000 fps, 1 644 Kbps
Аудио: AC-3, 48.0 KHz, 448 Kbps, 6 channels

MediaInfo

General
Complete name : D:\Мои документы\Видео\Фильмы\Бабник.avi
Format : AVI
Format/Info : Audio Video Interleave
File size : 1.37 GiB
Duration : 1h 33mn
Overall bit rate : 2 101 Kbps
Movie name : Spread (2009)
Director : ELEKTRI4KA [uniongang.ru]
Writing application : VirtualDubMod 1.5.10.2 (build 2540/release)
Copyright : http://uniongang.ru/
Video
ID : 0
Format : MPEG-4 Visual
Format profile : Advanced [email protected]
Format settings, BVOP : 3
Format settings, QPel : No
Format settings, GMC : No warppoints
Format settings, Matrix : Custom
Codec ID : XVID
Codec ID/Hint : XviD
Duration : 1h 33mn
Bit rate : 1 644 Kbps
Width : 704 pixels
Height : 304 pixels
Display aspect ratio : 2.35:1
Frame rate : 25.000 fps
Color space : YUV
Chroma subsampling : 4:2:0
Bit depth : 8 bits
Scan type : Progressive
Compression mode : Lossy
Bits/(Pixel*Frame) : 0.307
Stream size : 1.07 GiB (78%)
Writing library : XviD 1.2.0.dev47 (UTC 2006-11-01)
Audio
ID : 1
Format : AC-3
Format/Info : Audio Coding 3
Mode extension : CM (complete main)
Format settings, Endianness : Big
Codec ID : 2000
Duration : 1h 33mn
Bit rate mode : Constant
Bit rate : 448 Kbps
Channel(s) : 6 channels
Channel positions : Front: L C R, Side: L R, LFE
Sampling rate : 48.0 KHz
Bit depth : 16 bits
Compression mode : Lossy
Stream size : 298 MiB (21%)
Alignment : Split accross interleaves
Interleave, duration : 40 ms (1.00 video frame)
Interleave, preload duratio : 500 ms

Скриншот c названием фильма

Скриншоты







Создавать темы 19-Мар-2015 14:34

[Профиль]  [ЛС] 

Grock

Стаж: 6 лет 6 месяцев

Сообщений: 637

Симпатии: 113

1eg10ner, Скриншоты должны быть размером 704x304 как указано в МедиаИнфо. Переделайте пожалуйста

Создавать темы 19-Мар-2015 15:49

[Профиль]  [ЛС] 

Ахмад салих

Стаж: 4 года 2 месяца

Сообщений: 117

Симпатии: 26

встаньте нормально на раздачу не могу скачать который день

Создавать темы 26-Июн-2015 03:33

[Профиль]  [ЛС] 

Ахмад салих

Стаж: 4 года 2 месяца

Сообщений: 117

Симпатии: 26

1eg10ner, 11 Помоги с Раздачей 5 дней уже жду

Создавать темы 01-Июл-2015 01:47

[Профиль]  [ЛС] 
Показать сообщения:    
Ответить на тему

Текущее время: 21-Авг 15:27

Часовой пояс: UTC + 5



Вы не можете начинать темы
Вы не можете отвечать на сообщения
Вы не можете редактировать свои сообщения
Вы не можете удалять свои сообщения
Вы не можете голосовать в опросах
Вы не можете прикреплять файлы к сообщениям
Вы не можете скачивать файлы