«Из Пари́жа с любо́вью» / From Paris with Love (Пьер Морель) [2010, Франция, Комедийный боевик,триллер., DVDRip] (Dub) (Original Rus)

Ответить на тему
 

Warty ®

Стаж: 2 года 8 месяцев

Сообщений: 5

Симпатии: 7

«Из Пари́жа с любо́вью» / From Paris with Love Страна: Франция
Жанр: Комедийный боевик, триллер.
Год выпуска: 2010
Продолжительность: 01:28:05
Перевод: Профессиональный (дублированный)
Cубтитры: нет
Оригинальная аудиодорожка: русский
Режиссер: Пьер Морель
В ролях: Джон Траволта и Джонатан Рис-Майерс
Описание: На первый взгляд Джеймс Риз — личный помощник американского посла во Франции, завидная жизнь в Париже, красивая подружка-француженка… Но в действительности он — младший оперативный сотрудник ЦРУ, который мечтает стать полноценным агентом и участвовать в реальных операциях.Джеймс не может поверить в удачу, когда узнаёт, что получает повышение и напарника, спецагента Чарли Вэкса, которого еще нужно вызволить из таможни аэропорта. Риз не понимает настойчивости, с которой Вэкс хочет пронести несколько банок с энергетическим напитком, который можно купить и во Франции. Чтобы долго не спорить с обеими конфликтующими сторонами (Вэкс и таможенник), Риз клеит на сумку стикер «Дипломатическая почта» и забирает её. В автомобиле Вэкс вытаскивает из банок части разобранного любимого пистолета, Sig Sauer P226 сделанного на заказ, который он называет «Миссис Джонс»,
Качество видео: DVDRip
Формат видео: AVI
Видео: Информация о видео] Видеокодек:XVID - Декодер FFmpeg Вход:XVID(12 bits) Размер на входе:640 x 272(2.35:1) Выход:RGB(32 bits) Размер на выходе:640 x 272(2.35:1) Частота кадров:25.00
Аудио: [Информация о звуке] Аудиокодек:MPEG Audio Layer 3(0x55) Частота дискретизации:48000 -> 48000 выборок/с. Скорость потока:0 -> 16 бит на компонент Каналы:2 -> 2 каналов Bitrate: 112 kbps

MediaInfo

General
Complete name : G:\Кино\Iz.parizha.s.lubovju.2010.D.DVDRip.700MB_Epidem.ru.avi
Format : AVI
Format/Info : Audio Video Interleave
File size : 702 MiB
Duration : 1h 28mn
Overall bit rate : 1 114 Kbps
Writing application : VirtualDubMod 1.5.10.2 (build 2540/release)
Writing library : VirtualDubMod build 2540/release
Video
ID : 0
Format : MPEG-4 Visual
Format profile : Advanced [email protected]
Format settings, BVOP : 1
Format settings, QPel : No
Format settings, GMC : No warppoints
Format settings, Matrix : Default (MPEG)
Codec ID : XVID
Codec ID/Hint : XviD
Duration : 1h 28mn
Bit rate : 992 Kbps
Width : 640 pixels
Height : 272 pixels
Display aspect ratio : 2.35:1
Frame rate : 25.000 fps
Color space : YUV
Chroma subsampling : 4:2:0
Bit depth : 8 bits
Scan type : Progressive
Compression mode : Lossy
Bits/(Pixel*Frame) : 0.228
Stream size : 625 MiB (89%)
Writing library : XviD 1.1.2 (UTC 2006-11-01)
Audio
ID : 1
Format : MPEG Audio
Format version : Version 1
Format profile : Layer 3
Mode : Joint stereo
Mode extension : MS Stereo
Codec ID : 55
Codec ID/Hint : MP3
Duration : 1h 28mn
Bit rate mode : Constant
Bit rate : 112 Kbps
Channel(s) : 2 channels
Sampling rate : 48.0 KHz
Compression mode : Lossy
Stream size : 70.6 MiB (10%)
Alignment : Aligned on interleaves
Interleave, duration : 40 ms (1.00 video frame)
Interleave, preload duration : 504 ms

Скриншот c названием фильма

Скриншоты





Последний раз редактировалось: Warty (2015-03-19 22:16), всего редактировалось 1 раз

Создавать темы 19-Мар-2015 18:53

[Профиль]  [ЛС] 

Davron1402

Стаж: 3 года 11 месяцев

Сообщений: 136

Симпатии: 122

Почему от Люка Бессона написано на постера?

Создавать темы 20-Мар-2015 17:04

[Профиль]  [ЛС] 

Warty ®

Стаж: 2 года 8 месяцев

Сообщений: 5

Симпатии: 7

926762Один из сценаристов Люк Бессон

Создавать темы 21-Мар-2015 21:53

[Профиль]  [ЛС] 
Показать сообщения:    
Ответить на тему

Текущее время: 11-Дек 18:16

Часовой пояс: UTC + 5



Вы не можете начинать темы
Вы не можете отвечать на сообщения
Вы не можете редактировать свои сообщения
Вы не можете удалять свои сообщения
Вы не можете голосовать в опросах
Вы не можете прикреплять файлы к сообщениям
Вы не можете скачивать файлы