Бумажная луна / Paper Moon (Питер Богданович) [1973, США, драма, комедия, криминал, WEB-DL 720p] MVO + 2DVO + AVO + Original + Sub (Rus, Eng)

Ответить на тему
 

lotto ®

Стаж: 7 лет 11 месяцев

Сообщений: 221

Симпатии: 409

Бумажная луна / Paper Moon
«As P.T. Barnum put it, 'There's a sucker born every minute.'»
-- Страна: США
Жанр: драма, комедия, криминал
Год выпуска: 1973
Продолжительность: 01:42:20
Перевод: Профессиональный (многоголосый закадровый)
Cубтитры: русские
Оригинальная аудиодорожка: английский--Режиссер: Питер Богданович
В ролях: Райан О’Нил, Татум О’Нил, Мэдлин Кан, Джон Хиллерман, П.Дж. Джонсон, Джесси Ли Фултон, Джеймс Н. Харрелл, Лайла Уотерс, Ноубл Уиллингэм, Боб Янг--Описание: Авантюрный тандем случайных попутчиков колесит по маленьким городкам Канзаса во времена Великой Депрессии и промышляет мелкими, почти невинными махинациями, чтобы хоть как-то заработать на хлеб.
Он - мошенник-неудачник по имени Мозэс, продающий Библии одиноким вдовам, поблескивая фальшивым золотым зубом.
Она - девятилетняя девочка-сирота с недюжинной склонностью к авантюрам и практически не расстающаяся с сигаретой.-- --Качество видео: WEB-DLp
Формат видео: MKV
Видео: h.264, 1278x720, 4200 kbps. 23.976 fps
Аудио: AAC, 48 KHz, 2 ch, 128 kbps (русский, двухголосый) НТВ
Аудио 2: AAC, 48 KHz, 2 ch, 128 kbps (русский, многоголосый) 5-канал
Аудио 3: AAC, 48 KHz, 2 ch, 128 kbps (русский, двухголосый)
Аудио 4: AAC, 48 KHz, 2 ch, 128 kbps (русский, одноголосый) М.Иванов
Аудио 4: AAC, 48 KHz, 2 ch, 128 kbps (английский)
Формат субтитров: softsub (SRT)

MediaInfo

General
Unique ID : 181100486788352587340650051944228224090 (0x883EAF5F19E8FD21A908C1415EF67C5A)
Complete name : \Paper.Moon.1973.720p.WEB-DL.AAC2.0.H.264-BS.mkv
Format : Matroska
Format version : Version 2
File size : 3.66 GiB
Duration : 1h 42mn
Overall bit rate : 5 127 Kbps
Encoded date : UTC 2012-12-17 20:14:30
Writing application : mkvmerge v5.0.1 ('Es ist Sommer') built on Oct 9 2011 11:55:43
Writing library : libebml v1.2.2 + libmatroska v1.3.0
Video
ID : 1
Format : AVC
Format/Info : Advanced Video Codec
Format profile : [email protected]
Format settings, CABAC : No
Format settings, ReFrames : 2 frames
Codec ID : V_MPEG4/ISO/AVC
Duration : 1h 42mn
Width : 1 278 pixels
Height : 720 pixels
Display aspect ratio : 16:9
Frame rate mode : Constant
Frame rate : 23.976 fps
Color space : YUV
Chroma subsampling : 4:2:0
Bit depth : 8 bits
Scan type : Progressive
Language : English
Default : Yes
Forced : No
Color primaries : BT.709
Transfer characteristics : BT.709
Matrix coefficients : BT.709
Color range : Limited
Audio #1
ID : 2
Format : AC-3
Format/Info : Audio Coding 3
Mode extension : CM (complete main)
Format settings, Endianness : Big
Codec ID : A_AC3
Duration : 1h 42mn
Bit rate mode : Constant
Bit rate : 192 Kbps
Channel(s) : 2 channels
Channel positions : Front: L R
Sampling rate : 48.0 KHz
Bit depth : 16 bits
Compression mode : Lossy
Stream size : 141 MiB (4%)
Title : MVO НТВ
Language : Russian
Default : Yes
Forced : No
Audio #2
ID : 3
Format : AC-3
Format/Info : Audio Coding 3
Mode extension : CM (complete main)
Format settings, Endianness : Big
Codec ID : A_AC3
Duration : 1h 42mn
Bit rate mode : Constant
Bit rate : 192 Kbps
Channel(s) : 2 channels
Channel positions : Front: L R
Sampling rate : 48.0 KHz
Bit depth : 16 bits
Compression mode : Lossy
Stream size : 141 MiB (4%)
Title : MVO 5 Канал
Language : Russian
Default : No
Forced : No
Audio #3
ID : 4
Format : AC-3
Format/Info : Audio Coding 3
Mode extension : CM (complete main)
Format settings, Endianness : Big
Codec ID : A_AC3
Duration : 1h 42mn
Bit rate mode : Constant
Bit rate : 192 Kbps
Channel(s) : 2 channels
Channel positions : Front: L R
Sampling rate : 48.0 KHz
Bit depth : 16 bits
Compression mode : Lossy
Stream size : 141 MiB (4%)
Title : MVO
Language : Russian
Default : No
Forced : No
Audio #4
ID : 5
Format : AC-3
Format/Info : Audio Coding 3
Mode extension : CM (complete main)
Format settings, Endianness : Big
Codec ID : A_AC3
Duration : 1h 42mn
Bit rate mode : Constant
Bit rate : 192 Kbps
Channel(s) : 2 channels
Channel positions : Front: L R
Sampling rate : 48.0 KHz
Bit depth : 16 bits
Compression mode : Lossy
Stream size : 141 MiB (4%)
Title : AVO Михаил Иванов
Language : Russian
Default : No
Forced : No
Audio #5
ID : 6
Format : AAC
Format/Info : Advanced Audio Codec
Format profile : LC
Codec ID : A_AAC
Duration : 1h 42mn
Channel(s) : 2 channels
Channel positions : Front: L R
Sampling rate : 48.0 KHz
Compression mode : Lossy
Title : AAC 2.0
Language : English
Default : No
Forced : No
Text #1
ID : 7
Format : UTF-8
Codec ID : S_TEXT/UTF8
Codec ID/Info : UTF-8 Plain Text
Language : English
Default : No
Forced : No
Text #2
ID : 8
Format : UTF-8
Codec ID : S_TEXT/UTF8
Codec ID/Info : UTF-8 Plain Text
Language : Russian
Default : No
Forced : No
Menu
00:00:00.000 : en:Chapter 1
00:16:28.000 : en:Chapter 2
00:31:25.000 : en:Chapter 3
00:45:05.000 : en:Chapter 4
01:00:00.000 : en:Chapter 5
01:14:35.000 : en:Chapter 6
01:30:17.000 : en:Chapter 7

Скриншот c названием фильма

Скриншоты

Создавать темы 19-Мар-2015 21:00

[Профиль]  [ЛС] 
Показать сообщения:    
Ответить на тему

Текущее время: 15-Дек 21:08

Часовой пояс: UTC + 5



Вы не можете начинать темы
Вы не можете отвечать на сообщения
Вы не можете редактировать свои сообщения
Вы не можете удалять свои сообщения
Вы не можете голосовать в опросах
Вы не можете прикреплять файлы к сообщениям
Вы не можете скачивать файлы