«Папа-досвидос» / That's My Boy (Шон Андерс) [2012, США, комедия, DVDRip] MVO

Ответить на тему
 

Warty ®

Стаж: 2 года 7 месяцев

Сообщений: 5

Симпатии: 7

«Папа-досвидос» / That's My Boy
Страна: США
Жанр: американская комедия
Год выпуска: 2012
Продолжительность: 01:49:47
Перевод: Профессиональный (многоголосый закадровый)
Cубтитры: нет
Оригинальная аудиодорожка: русский
Режиссер: Шон Андерс
В ролях: Адам Сэндлер, Энди Сэмберг, Лейтон Мистер, Ванилла Айс, Майло Вентимилья, Блейк Кларк, Уилл Форте, Сьюзен Сарандон, Джеймс Каан
Описание: В одной из школ города Массачусетс тинейджер Донни Бергер влюбляется в свою новую молодую учительницу Мэри МакГеррикл, и это чувство оказывается взаимным. К тому же, Мэри оказывается «очень плохой училкой» и сама его соблазняет. В итоге они начинают встречаться, но однажды вся школа их застаёт за занятием сексом прямо на сцене школьного театра. Хотя вся школа в восторге от поступка Донни, сама Мэри попадает под суд, и обнаруживается, что она беременна. В результате она попадает на 30 лет в тюрьму, а Донни становится отцом «по залету». При этом его история облетает мир и становится основой телесериала, а Донни даже успел подружиться с известным рэпером Ваниллой Айсом.
Качество видео: DVDRip
Формат видео: AVI (XviD)
Видео: 720 x 304px, 1 895Kbps, 25.000 fps
Аудио: Dolby AC3, 384 kbps, 48.0KHz, 6(Ch)

MediaInfo

General
Complete name : G:\Кино\Папа дасвидос.avi
Format : AVI
Format/Info : Audio Video Interleave
File size : 1.45 GiB
Duration : 1h 49mn
Overall bit rate : 1 895 Kbps
Writing application : VirtualDubMod 1.5.10.2 (build 2540/release)
Writing library : VirtualDub build 32842/release
Video
ID : 0
Format : MPEG-4 Visual
Format profile : Advanced [email protected]
Format settings, BVOP : 1
Format settings, QPel : No
Format settings, GMC : No warppoints
Format settings, Matrix : Custom
Codec ID : XVID
Codec ID/Hint : XviD
Duration : 1h 49mn
Bit rate : 1 501 Kbps
Width : 720 pixels
Height : 304 pixels
Display aspect ratio : 2.35:1
Frame rate : 25.000 fps
Color space : YUV
Chroma subsampling : 4:2:0
Bit depth : 8 bits
Scan type : Progressive
Compression mode : Lossy
Bits/(Pixel*Frame) : 0.274
Stream size : 1.15 GiB (79%)
Writing library : XviD 1.2.1 (UTC 2008-12-04)
Audio
ID : 1
Format : AC-3
Format/Info : Audio Coding 3
Mode extension : CM (complete main)
Format settings, Endianness : Big
Codec ID : 2000
Duration : 1h 49mn
Bit rate mode : Constant
Bit rate : 384 Kbps
Channel(s) : 6 channels
Channel positions : Front: L C R, Side: L R, LFE
Sampling rate : 48.0 KHz
Bit depth : 16 bits
Compression mode : Lossy
Delay relative to video : 500ms
Stream size : 302 MiB (20%)
Alignment : Split accross interleaves
Interleave, duration : 40 ms (1.00 video frame)
Interleave, preload duration : 500 ms

Доп.информация

Адам Сэндлер всего лишь на 12 лет старше Энди Сэмберга, который играет роль его сына в фильме.
Сьюзен Сарандон так же играла мать Энди Сэмберга в телешоу «Субботним вечером в прямом эфире» в эпизодах «Motherlover» и «3-Way (The Golden Rule)» (сцены сделаны для телешоу совместно комедийной группой «The Lonely Island», участником которой является Сэмберг, и Джастином Тимберлэйком).
Сьюзен Сарандон так же играла учительницу, у которой были взаимоотношения с несовершеннолетним студентом в сериале «Студия 30», эпизод «Queen of Jordan».
Рекс Райан играет эпизодическую роль фаната команды Патриотов (The Patriots). В реальной жизни он — главный тренер Нью-Йорк Джетс (New York Jets), которые являются основными конкурентами Патриотов.
Ева Амурри играет «молодую версию» своей реальной матери Сьюзен Сарандон.
В сцене школьных воспоминаний (в 1984 году) один из школьных друзей Донни держит в руках коробку для завтрака с надписью «ALF», хотя премьера этого сериала состоялась лишь в 1986 году.
Когда Тодд и Донни посещают Мэри в тюрьме, ее оранжевый комбинезон меняется: сначала застегнут, потом расстегнут и затем застегнут снова, до тех пор пока она сама не расстегивает его.
Несмотря на то, что Донни холостяк, у него виден след от обручального кольца на пальце. Это наиболее заметно во время объятий после мальчишника.
В сцене, где Донни и Ванилла Айс бегут по пляжу, двух маленьких девочек за стойкой с лимонадом играют дочери Адама Сэндлера - Сэди и Санни.

Скриншоты





Последний раз редактировалось: Warty (2015-03-20 13:22), всего редактировалось 1 раз

Создавать темы 20-Мар-2015 09:02

[Профиль]  [ЛС] 
Показать сообщения:    
Ответить на тему

Текущее время: 20-Окт 19:33

Часовой пояс: UTC + 5



Вы не можете начинать темы
Вы не можете отвечать на сообщения
Вы не можете редактировать свои сообщения
Вы не можете удалять свои сообщения
Вы не можете голосовать в опросах
Вы не можете прикреплять файлы к сообщениям
Вы не можете скачивать файлы