Рыцарь дня / Knight & Day (Джеймс Мэнголд) [2010, США, Комедийный боевик,приключения., DVDRip] MVO

Ответить на тему
 

Warty ®

Стаж: 2 года 8 месяцев

Сообщений: 5

Симпатии: 7

Рыцарь дня / Knight & Day
Страна: США
Жанр: Комедийный боевик,приключения.
Год выпуска: 2010
Продолжительность: 01:45:02
Перевод: Профессиональный (многоголосый закадровый)
Cубтитры: нет
Режиссер: Джеймс Мэнголд
В ролях: Том Круз, Камерон Диас, Питер Сарсгаард
Описание: Том Круз играет тайного агента, который случайно завязывает знакомство с обычной девушкой — героиней Камерон Диас, и в результате втягивает её в задание защитить сверхмощную батарейку, которая является ключом к созданию неисчерпаемого источника энергии, от преступников, пытающихся воспользоваться ею в своих целях. В фильме говорится, что эта батарея способна питать даже небольшой город: чем не отличный повод, чтобы завладеть ей? Вместе с батареей тайный агент оберегает от преступников создавшего её молодого ученого, не так давно закончившего школу и не способного защититься от них самостоятельно. Между агентом и девушкой возникают любовные отношения, но они не ставятся на «передний план».
Качество видео: DVDRip
Формат видео: AVI
Видео: XviD, 640 x 272(2.35:1), 811Kbps, 25.000fps
Аудио: MPEG Audio Layer, 112kbps, 44.1 KHz, 2Channels

MediaInfo

General
Complete name : G:\Кино\Rytzar.dnja.2010.D.DVDRip.700MB.avi
Format : AVI
Format/Info : Audio Video Interleave
File size : 701 MiB
Duration : 1h 45mn
Overall bit rate : 933 Kbps
Writing application : VirtualDubMod 1.5.10.2 (build 2540/release)
Writing library : VirtualDubMod build 2540/release
Video
ID : 0
Format : MPEG-4 Visual
Format profile : Advanced [email protected]
Format settings, BVOP : 3
Format settings, QPel : No
Format settings, GMC : No warppoints
Format settings, Matrix : Custom
Codec ID : XVID
Codec ID/Hint : XviD
Duration : 1h 45mn
Bit rate : 811 Kbps
Width : 640 pixels
Height : 272 pixels
Display aspect ratio : 2.35:1
Frame rate : 25.000 fps
Color space : YUV
Chroma subsampling : 4:2:0
Bit depth : 8 bits
Scan type : Progressive
Compression mode : Lossy
Bits/(Pixel*Frame) : 0.186
Stream size : 610 MiB (87%)
Writing library : XviD 1.2.1 (UTC 2008-12-04)
Audio
ID : 1
Format : MPEG Audio
Format version : Version 1
Format profile : Layer 3
Codec ID : 55
Codec ID/Hint : MP3
Duration : 1h 45mn
Bit rate mode : Constant
Bit rate : 112 Kbps
Channel(s) : 2 channels
Sampling rate : 44.1 KHz
Compression mode : Lossy
Stream size : 84.1 MiB (12%)
Alignment : Split accross interleaves
Interleave, duration : 40 ms (1.00 video frame)
Interleave, preload duration : 500 ms
Writing library : LAME3.98r
Encoding settings : -m s -V 4 -q 2 -lowpass 15.6 -b 112

Скриншоты





Последний раз редактировалось: Warty (2015-03-20 13:26), всего редактировалось 1 раз

Создавать темы 20-Мар-2015 11:49

[Профиль]  [ЛС] 

-OdilmaX-

Стаж: 2 года 8 месяцев

Сообщений: 425

Симпатии: 854

Хороший фильм , советую всем !

Создавать темы 20-Мар-2015 16:24

[Профиль]  [ЛС] 
Показать сообщения:    
Ответить на тему

Текущее время: 16-Дек 14:21

Часовой пояс: UTC + 5



Вы не можете начинать темы
Вы не можете отвечать на сообщения
Вы не можете редактировать свои сообщения
Вы не можете удалять свои сообщения
Вы не можете голосовать в опросах
Вы не можете прикреплять файлы к сообщениям
Вы не можете скачивать файлы