Властелин колец: Трилогия (Расширенная версия) / The Lord of the Rings: Trilogy (Питер Джексон / Peter Jackson) [2001-2003, США, Новая Зеландия, боевик, фэнтези, приключения, Extended Edition BDRip 1080p] Dub + MVO + Sub rus, eng

Страницы :  1, 2  След.

Ответить на тему
 

yusuf.0088 ®

Стаж: 4 года 2 месяца

Сообщений: 116

Симпатии: 69

Властелин колец: Трилогия / The Lord of the Rings: Trilogy «Extended Edition»----Властелин колец: Братство кольца / The Lord of the Rings: The Fellowship of the Ring
«Power can be held in the smallest of things...»
Год выпуска: 2001
Страна: США, Новая Зеландия
Жанр: Боевик, фэнтези, приключения.
Продолжительность: 03:48:12--Перевод: Профессиональный (полное дублирование) + Профессиональный (многоголосый закадровый) Pozitiv MM
Оригинальная аудиодорожка: Английский
Cубтитры: Русские (форс и полные), английские(форс и полные).--Режиссер: Питер Джексон / Peter Jackson--В ролях: Элайджа Вуд, Шон Эстин, Вигго Мортенсен, Иэн МакКеллен, Доминик Монахэн, Билли Бойд, Шон Бин, Орландо Блум, Джон Рис-Дэвис, Кристофер Ли--Описание:
Сказания о Средиземье — это хроника Великой войны за Кольцо, войны, длившейся не одну тысячу лет. Тот, кто владел Кольцом, получал власть над всеми живыми тварями, но был обязан служить злу. Тихая деревня, где живут хоббиты. Волшебник Гэндальф, придя на 111-й день рождения к своему старому другу Бильбо Бэггинсу, начинает вести разговор о кольце, которое Бильбо нашел много лет назад. Это кольцо принадлежало когда-то темному властителю Средиземья Саурону, и оно дает большую власть своему обладателю. Теперь Саурон хочет вернуть себе власть над Средиземьем. Бильбо отдает найденное кольцо своему племяннику Фродо, который пытается научиться справляться с тем страшным могуществом, которое дает ему кольцо...--   --Видео: MPEG-4 AVC / High Profile 4.1 / 1920x800 / 23,976 fps / 12300 kbps
Аудио 1: Русский / AC3 6ch / 48 KHz / 640 kbps |MVO Pozitiv MM|
Аудио 2: Русский / AC3 6ch / 48 KHz / 448 kbps |Дубляж + вставки Pozitiv MM на расш. места|
Аудио 2: Английский / AC3 6ch / 48 KHz / 640 kbps |Original|

MediaInfo

Формат : Matroska
Версия формата : Version 4 / Version 2
Размер файла : 22,1 Гбайт
Продолжительность : 3 ч. 48 м.
Общий поток : 13,8 Мбит/сек
Название фильма : The Fellowship.of.the.Ring.2001.BDRip.1080p.by.Yusuf
Дата кодирования : UTC 2014-04-11 18:29:45
Программа кодирования : mkvmerge v6.0.0 ('Coming Up For Air') built on Jan 20 2013 09:52:00
Библиотека кодирования : libebml v1.3.0 + libmatroska v1.4.0
Attachment : Yes / Yes / Yes
Видео
Идентификатор : 1
Формат : AVC
Формат/Информация : Advanced Video Codec
Профиль формата : [email protected]
Параметр CABAC формата : Да
Параметр ReFrames формата : 4 кадра
Идентификатор кодека : V_MPEG4/ISO/AVC
Продолжительность : 3 ч. 48 м.
Битрейт : 12,3 Мбит/сек
Ширина : 1920 пикселей
Высота : 800 пикселей
Соотношение сторон : 2,40:1
Режим частоты кадров : Постоянный
Частота кадров : 23,976 кадра/сек
Цветовое пространство : YUV
Субдискретизация насыщенности : 4:2:0
Битовая глубина : 8 бит
Тип развёртки : Прогрессивная
Бит/(Пиксели*Кадры) : 0.334
Размер потока : 18,9 Гбайт (86%)
Заголовок : The Fellowship.of.the.Ring.2001.BDRip.1080p.by.Yusuf
Библиотека кодирования : x264 core 138 r2358 9e941d1
Настройки программы : cabac=1 / ref=4 / deblock=1:-3:-3 / analyse=0x3:0x113 / me=umh / subme=10 / psy=1 / psy_rd=1.00:0.00 / mixed_ref=1 / me_range=32 / chroma_me=1 / trellis=2 / 8x8dct=1 / cqm=0 / deadzone=21,11 / fast_pskip=1 / chroma_qp_offset=-2 / threads=12 / lookahead_threads=1 / sliced_threads=0 / nr=0 / decimate=1 / interlaced=0 / bluray_compat=0 / constrained_intra=0 / bframes=8 / b_pyramid=2 / b_adapt=1 / b_bias=0 / direct=1 / weightb=1 / open_gop=0 / weightp=2 / keyint=240 / keyint_min=23 / scenecut=40 / intra_refresh=0 / rc_lookahead=40 / rc=2pass / mbtree=1 / bitrate=12300 / ratetol=1.0 / qcomp=0.60 / qpmin=0 / qpmax=69 / qpstep=4 / cplxblur=20.0 / qblur=0.5 / vbv_maxrate=50000 / vbv_bufsize=62500 / nal_hrd=none / ip_ratio=1.40 / aq=1:1.00
Язык : English
Default : Да
Forced : Нет
Аудио #1
Идентификатор : 2
Формат : AC-3
Формат/Информация : Audio Coding 3
Расширение режима : CM (complete main)
Параметр Endianness формата : Big
Идентификатор кодека : A_AC3
Продолжительность : 3 ч. 48 м.
Вид битрейта : Постоянный
Битрейт : 640 Кбит/сек
Каналы : 6 каналов
Расположение каналов : Front: L C R, Side: L R, LFE
Частота : 48,0 КГц
Битовая глубина : 16 бит
Метод сжатия : С потерями
Размер потока : 1,02 Гбайт (5%)
Заголовок : Pozitiv MM
Язык : Russian
Default : Да
Forced : Нет
Аудио #2
Идентификатор : 3
Формат : AC-3
Формат/Информация : Audio Coding 3
Расширение режима : CM (complete main)
Параметр Endianness формата : Big
Идентификатор кодека : A_AC3
Продолжительность : 3 ч. 48 м.
Вид битрейта : Постоянный
Битрейт : 448 Кбит/сек
Каналы : 6 каналов
Расположение каналов : Front: L C R, Side: L R, LFE
Частота : 48,0 КГц
Битовая глубина : 16 бит
Метод сжатия : С потерями
Размер потока : 732 Мбайт (3%)
Заголовок : Dub + Pozitiv MM
Язык : Russian
Default : Нет
Forced : Нет
Аудио #3
Идентификатор : 4
Формат : AC-3
Формат/Информация : Audio Coding 3
Расширение режима : CM (complete main)
Параметр Endianness формата : Big
Идентификатор кодека : A_AC3
Продолжительность : 3 ч. 48 м.
Вид битрейта : Постоянный
Битрейт : 640 Кбит/сек
Каналы : 6 каналов
Расположение каналов : Front: L C R, Side: L R, LFE
Частота : 48,0 КГц
Битовая глубина : 16 бит
Метод сжатия : С потерями
Размер потока : 1,02 Гбайт (5%)
Язык : English
Default : Нет
Forced : Нет
Текст #1
Идентификатор : 5
Формат : ASS
Идентификатор кодека : S_TEXT/ASS
Идентификатор кодека/Информация : Advanced Sub Station Alpha
Метод сжатия : Без потерь
Заголовок : Forced Pozitiv MM
Язык : Russian
Default : Да
Forced : Нет
Текст #2
Идентификатор : 6
Формат : UTF-8
Идентификатор кодека : S_TEXT/UTF8
Идентификатор кодека/Информация : UTF-8 Plain Text
Заголовок : Pozitiv MM
Язык : Russian
Default : Нет
Forced : Нет
Текст #3
Идентификатор : 7
Формат : UTF-8
Идентификатор кодека : S_TEXT/UTF8
Идентификатор кодека/Информация : UTF-8 Plain Text
Заголовок : Henneth-annun
Язык : Russian
Default : Нет
Forced : Нет
Текст #4
Идентификатор : 8
Формат : ASS
Идентификатор кодека : S_TEXT/ASS
Идентификатор кодека/Информация : Advanced Sub Station Alpha
Метод сжатия : Без потерь
Заголовок : Forsed
Язык : English
Default : Нет
Forced : Нет
Текст #5
Идентификатор : 9
Формат : ASS
Идентификатор кодека : S_TEXT/ASS
Идентификатор кодека/Информация : Advanced Sub Station Alpha
Метод сжатия : Без потерь
Язык : English
Default : Нет
Forced : Нет
Текст #6
Идентификатор : 10
Формат : PGS
Режим смешивания : zlib
Идентификатор кодека : S_HDMV/PGS
Идентификатор кодека/Информация : The same subtitle format used on BDs/HD-DVDs
Заголовок : PGS Forced Pozitiv MM
Язык : Russian
Default : Нет
Forced : Нет
Текст #7
Идентификатор : 11
Формат : PGS
Режим смешивания : zlib
Идентификатор кодека : S_HDMV/PGS
Идентификатор кодека/Информация : The same subtitle format used on BDs/HD-DVDs
Заголовок : PGS Pozitiv MM
Язык : Russian
Default : Нет
Forced : Нет
Текст #8
Идентификатор : 12
Формат : PGS
Режим смешивания : zlib
Идентификатор кодека : S_HDMV/PGS
Идентификатор кодека/Информация : The same subtitle format used on BDs/HD-DVDs
Заголовок : PGS Forced
Язык : English
Default : Нет
Forced : Нет
Текст #9
Идентификатор : 13
Формат : PGS
Режим смешивания : zlib
Идентификатор кодека : S_HDMV/PGS
Идентификатор кодека/Информация : The same subtitle format used on BDs/HD-DVDs
Заголовок : PGS SDH
Язык : English
Default : Нет
Forced : Нет
Меню
00:00:00.000 : en: 1. Prologue: One Ring To Rule Them All...
00:07:36.790 : en: 2. Concerning Hobbits
00:10:35.552 : en: 3. The Shire
00:15:39.856 : en: 4. Very Old Friends
00:19:58.489 : en: 5. A Long-expected Party
00:25:32.614 : en: 6. Farewell Dear Bilbo
00:29:57.379 : en: 7. Keep It Secret, Keep It Safe
00:32:10.679 : en: 8. The Account Of Isildur
00:34:51.798 : en: 9. At The Green Dragon
00:36:18.176 : en:10. The Shadow of the Past
00:45:04.160 : en:11. The Passing of the Elves
00:46:44.301 : en:12. Saruman The White
00:51:21.412 : en:13. A Short Cut to Mushrooms
00:55:12.434 : en:14. Bucklebury Ferry
00:57:30.072 : en:15. At the Sign of The Prancing Pony
01:03:31.516 : en:16. The Nazgul
01:07:16.115 : en:17. The Midgewater Marshes
01:08:53.588 : en:18. The Spoiling Of Isengard
01:10:35.940 : en:19. A Knife in the Dark
01:15:15.386 : en:20. The Caverns of Isengard
01:17:46.620 : en:21. Flight to the Ford
01:24:11.546 : en:22. Rivendell
01:26:12.501 : en:23. Many Meetings
01:29:41.585 : en:24. The Fate of the Ring
01:33:14.672 : en:25. The Sword That Was Broken
01:35:54.082 : en:26. The Evenstar
01:37:32.972 : en:27. The Council of Elrond
01:45:45.000 : en:28. Gilraen's Memorial
01:46:59.826 : en:29. Bilbo's Gifts
01:48:43.221 : en:30. The Departure of the Fellowship
01:50:00.631 : en:31. The Ring Goes South
01:53:06.442 : en:32. The Pass of Caradhras
01:57:52.728 : en:33. Moria
02:04:18.113 : en:34. A Journey in the Dark
02:10:48.461 : en:35. Balin's Tomb
02:20:13.192 : en:36. The Bridge of Khazad-Dum
02:29:54.648 : en:37. Lothlorien
02:33:07.299 : en:38. Caras Galadhorn
02:40:24.319 : en:39. The Mirror of Galadriel
02:46:04.325 : en:40. The Fighting Uruk-Hai
02:47:45.676 : en:41. Farewell to Lorien
02:53:08.207 : en:42. The Great River
02:58:00.457 : en:43. Parth Galen
03:04:28.219 : en:44. The Breaking of the Fellowship
03:11:44.155 : en:45. The Departure of Boromir
03:14:26.484 : en:46. The Road Goes Ever On
03:20:44.653 : en:47. Credits
03:28:25.155 : en:48. Official Fan Club Credits

Screenshots





ls]
----Властелин колец: Две крепости / The Lord of the Rings: The Two Towers
«Приключение продолжается»
Год выпуска: 2002
Страна: США, Новая Зеландия
Жанр: Боевик, фэнтези, приключения.
Продолжительность: 03:55:25--Перевод: Профессиональный (полное дублирование) + Профессиональный (многоголосый закадровый)
Оригинальная аудиодорожка: Английский
Cубтитры: Русские (форс и полные), английские (форс и полные).--Режиссер: Питер Джексон / Peter Jackson--В ролях: Элайджа Вуд, Шон Эстин, Вигго Мортенсен, Иэн МакКеллен, Доминик Монахэн, Билли Бойд, Шон Бин, Орландо Блум, Джон Рис-Дэвис, Кристофер Ли--Описание:
Братство распалось, но Кольцо Всевластья должно быть уничтожено. Фродо и Сэм вынуждены доверить свои жизни Голлуму, который взялся провести их к вратам Мордора. Громадная Армия Сарумана приближается: члены братства и их союзники готовы принять бой. Битва за Средиземье продолжается.--   --Видео: MPEG-4 AVC / High Profile 4.1 / 1920x798 / 23,976 fps / 12000 kbps
Аудио 1: Русский / AC3 6ch / 48 KHz / 640 kbps |MVO Pozitiv MM|
Аудио 2: Русский / AC3 6ch / 48 KHz / 448 kbps |Дубляж + вставки Pozitiv MM на расш. места|
Аудио 2: Английский / AC3 6ch / 48 KHz / 640 kbps |Original|

MediaInfo

Формат : Matroska
Версия формата : Version 4 / Version 2
Размер файла : 22,0 Гбайт
Продолжительность : 3 ч. 55 м.
Общий поток : 13,4 Мбит/сек
Название фильма : The.Lord.of.the.Rings-The.Two.Towers.2002.BDRip.1080p.by.Yusuf
Дата кодирования : UTC 2015-03-20 08:13:35
Программа кодирования : mkvmerge v6.0.0 ('Coming Up For Air') built on Jan 20 2013 09:52:00
Библиотека кодирования : libebml v1.3.0 + libmatroska v1.4.0
Attachment : Yes / Yes / Yes
Видео
Идентификатор : 1
Формат : AVC
Формат/Информация : Advanced Video Codec
Профиль формата : [email protected]
Параметр CABAC формата : Да
Параметр ReFrames формата : 4 кадра
Идентификатор кодека : V_MPEG4/ISO/AVC
Продолжительность : 3 ч. 55 м.
Битрейт : 11,4 Мбит/сек
Номинальный битрейт : 12,0 Мбит/сек
Ширина : 1920 пикселей
Высота : 798 пикселей
Соотношение сторон : 2,40:1
Режим частоты кадров : Постоянный
Частота кадров : 23,976 кадра/сек
Цветовое пространство : YUV
Субдискретизация насыщенности : 4:2:0
Битовая глубина : 8 бит
Тип развёртки : Прогрессивная
Бит/(Пиксели*Кадры) : 0.310
Размер потока : 18,7 Гбайт (85%)
Заголовок : The.Lord.of.the.Rings-The.Two.Towers.2002.BDRip.1080p.by.Yusuf
Библиотека кодирования : x264 core 138 r2358 9e941d1
Настройки программы : cabac=1 / ref=4 / deblock=1:-3:-3 / analyse=0x3:0x113 / me=umh / subme=11 / psy=1 / psy_rd=1.00:0.00 / mixed_ref=1 / me_range=32 / chroma_me=1 / trellis=2 / 8x8dct=1 / cqm=0 / deadzone=21,11 / fast_pskip=1 / chroma_qp_offset=-2 / threads=12 / lookahead_threads=1 / sliced_threads=0 / nr=0 / decimate=1 / interlaced=0 / bluray_compat=0 / constrained_intra=0 / bframes=7 / b_pyramid=2 / b_adapt=1 / b_bias=0 / direct=1 / weightb=1 / open_gop=0 / weightp=2 / keyint=240 / keyint_min=23 / scenecut=40 / intra_refresh=0 / rc_lookahead=40 / rc=2pass / mbtree=1 / bitrate=12000 / ratetol=1.0 / qcomp=0.60 / qpmin=0 / qpmax=69 / qpstep=4 / cplxblur=20.0 / qblur=0.5 / vbv_maxrate=50000 / vbv_bufsize=62500 / nal_hrd=none / ip_ratio=1.40 / aq=1:1.00
Язык : English
Default : Да
Forced : Нет
Аудио #1
Идентификатор : 2
Формат : AC-3
Формат/Информация : Audio Coding 3
Расширение режима : CM (complete main)
Параметр Endianness формата : Big
Идентификатор кодека : A_AC3
Продолжительность : 3 ч. 55 м.
Вид битрейта : Постоянный
Битрейт : 640 Кбит/сек
Каналы : 6 каналов
Расположение каналов : Front: L C R, Side: L R, LFE
Частота : 48,0 КГц
Битовая глубина : 16 бит
Метод сжатия : С потерями
Размер потока : 1,05 Гбайт (5%)
Заголовок : Pozitiv MM
Язык : Russian
Default : Да
Forced : Нет
Аудио #2
Идентификатор : 3
Формат : AC-3
Формат/Информация : Audio Coding 3
Расширение режима : CM (complete main)
Параметр Endianness формата : Big
Идентификатор кодека : A_AC3
Продолжительность : 3 ч. 55 м.
Вид битрейта : Постоянный
Битрейт : 448 Кбит/сек
Каналы : 6 каналов
Расположение каналов : Front: L C R, Side: L R, LFE
Частота : 48,0 КГц
Битовая глубина : 16 бит
Метод сжатия : С потерями
Размер потока : 755 Мбайт (3%)
Заголовок : Dub + Pozitiv MM
Язык : Russian
Default : Нет
Forced : Нет
Аудио #3
Идентификатор : 4
Формат : AC-3
Формат/Информация : Audio Coding 3
Расширение режима : CM (complete main)
Параметр Endianness формата : Big
Идентификатор кодека : A_AC3
Продолжительность : 3 ч. 55 м.
Вид битрейта : Постоянный
Битрейт : 640 Кбит/сек
Каналы : 6 каналов
Расположение каналов : Front: L C R, Side: L R, LFE
Частота : 48,0 КГц
Битовая глубина : 16 бит
Метод сжатия : С потерями
Размер потока : 1,05 Гбайт (5%)
Заголовок : English
Язык : English
Default : Нет
Forced : Нет
Текст #1
Идентификатор : 5
Формат : ASS
Идентификатор кодека : S_TEXT/ASS
Идентификатор кодека/Информация : Advanced Sub Station Alpha
Метод сжатия : Без потерь
Заголовок : Forced Pozitiv MM
Язык : Russian
Default : Да
Forced : Нет
Текст #2
Идентификатор : 6
Формат : UTF-8
Идентификатор кодека : S_TEXT/UTF8
Идентификатор кодека/Информация : UTF-8 Plain Text
Заголовок : Pozitiv MM
Язык : Russian
Default : Нет
Forced : Нет
Текст #3
Идентификатор : 7
Формат : UTF-8
Идентификатор кодека : S_TEXT/UTF8
Идентификатор кодека/Информация : UTF-8 Plain Text
Заголовок : Henneth-annun
Язык : Russian
Default : Нет
Forced : Нет
Текст #4
Идентификатор : 8
Формат : UTF-8
Идентификатор кодека : S_TEXT/UTF8
Идентификатор кодека/Информация : UTF-8 Plain Text
Язык : Ukrainian
Default : Нет
Forced : Нет
Текст #5
Идентификатор : 9
Формат : ASS
Идентификатор кодека : S_TEXT/ASS
Идентификатор кодека/Информация : Advanced Sub Station Alpha
Метод сжатия : Без потерь
Заголовок : Forsed
Язык : English
Default : Нет
Forced : Нет
Текст #6
Идентификатор : 10
Формат : ASS
Идентификатор кодека : S_TEXT/ASS
Идентификатор кодека/Информация : Advanced Sub Station Alpha
Метод сжатия : Без потерь
Язык : English
Default : Нет
Forced : Нет
Текст #7
Идентификатор : 11
Формат : PGS
Режим смешивания : zlib
Идентификатор кодека : S_HDMV/PGS
Идентификатор кодека/Информация : The same subtitle format used on BDs/HD-DVDs
Заголовок : PGS Forced Pozitiv MM
Язык : Russian
Default : Нет
Forced : Нет
Текст #8
Идентификатор : 12
Формат : PGS
Режим смешивания : zlib
Идентификатор кодека : S_HDMV/PGS
Идентификатор кодека/Информация : The same subtitle format used on BDs/HD-DVDs
Заголовок : PGS Pozitiv MM
Язык : Russian
Default : Нет
Forced : Нет
Текст #9
Идентификатор : 13
Формат : PGS
Режим смешивания : zlib
Идентификатор кодека : S_HDMV/PGS
Идентификатор кодека/Информация : The same subtitle format used on BDs/HD-DVDs
Заголовок : PGS Forced
Язык : English
Default : Нет
Forced : Нет
Текст #10
Идентификатор : 14
Формат : PGS
Режим смешивания : zlib
Идентификатор кодека : S_HDMV/PGS
Идентификатор кодека/Информация : The same subtitle format used on BDs/HD-DVDs
Заголовок : PGS SDH
Язык : English
Default : Нет
Forced : Нет
Меню
00:00:00.000 : en: 1. The Foundations of Stone
00:04:08.748 : en: 2. Elven Rope
00:06:10.829 : en: 3. The Taming of Smeagol
00:14:44.967 : en: 4. The Uruk-hai
00:17:06.609 : en: 5. The Three Hunters
00:19:17.948 : en: 6. The Burning of the Westfold
00:23:07.094 : en: 7. Massacre at the Fords of Isen
00:23:58.312 : en: 8. The Banishment of omer
00:27:09.044 : en: 9. On the Trail of the Uruk-hai
00:28:03.181 : en:10. Night Camp at Fangorn
00:31:38.230 : en:11. The Riders of Rohan
00:35:45.518 : en:12. The Fate of Merry and Pippin
00:38:17.879 : en:13. Treebeard
00:41:47.797 : en:14. The Passage of the Marshes
00:50:49.755 : en:15. The White Rider
00:58:19.413 : en:16. The Song of the Entwives
01:00:40.178 : en:17. The Heir of Numenor
01:02:48.306 : en:18. The Black Gate is Closed
01:08:05.999 : en:19. Ent Draft
01:12:41.732 : en:20. The King of the Golden Hall
01:24:17.344 : en:21. The Funeral of Theodred
01:25:41.636 : en:22. Simbelmyne on the Burial Mounds
01:27:34.332 : en:23. The King's Decision
01:30:45.523 : en:24. Brego
01:32:30.587 : en:25. The Ring of Barahir
01:34:31.040 : en:26. A Daughter of Kings
01:35:57.043 : en:27. Exodus from Edoras
01:37:02.316 : en:28. The Forests of Ithilien
01:38:43.960 : en:29. Gollum and Smeagol
01:41:14.819 : en:30. Of Herbs and Stewed Rabbit
01:46:40.000 : en:31. Dwarf Women
01:47:22.793 : en:32. One of the Dunedain
01:49:52.651 : en:33. The Evenstar
01:54:59.207 : en:34. The Wolves of Isengard
02:01:37.396 : en:35. Helm's Deep
02:04:17.515 : en:36. Isengard Unleashed
02:06:53.963 : en:37. The Grace of the Valar
02:08:31.519 : en:38. Arwen's Fate
02:12:14.283 : en:39. The Story Foreseen from Lorien
02:14:40.262 : en:40. The Window on the West
02:18:29.866 : en:41. Sons of the Steward
02:23:09.437 : en:42. The Forbidden Pool
02:30:31.128 : en:43. Aragorn's Return
02:36:04.378 : en:44. Entmoot
02:37:24.250 : en:45. The Glittering Caves
02:40:32.521 : en:46. "Where Is the Horse and the Rider?"
02:42:17.251 : en:47. "Don't Be Hasty, Master Meriadoc!"
02:43:07.926 : en:48. The Host of the Eldar
02:46:42.015 : en:49. The Batter of the Hornburg
02:53:04.397 : en:50. Old Entish
02:54:41.452 : en:51. The Breach of the Deeping Wall
02:58:06.574 : en:52. The Entmoot Decides
02:59:51.721 : en:53. The Retreat to the Hornburg
03:05:54.208 : en:54. Master Peregrin's Plan
03:07:19.293 : en:55. Osgiliath
03:07:54.036 : en:56. The Last March of the Ents
03:10:23.560 : en:57. The Nazgul Attack
03:12:55.545 : en:58. Forth Eorlingas
03:17:34.032 : en:59. The Flooding of Isengard
03:20:00.386 : en:60. The Tales That Really Mattered...
03:24:45.671 : en:61. Fangorn Comes to Helm's Deep
03:25:37.224 : en:62. The Final Tally
03:26:18.764 : en:63. Flotsam and Jetsam
03:28:22.555 : en:64. Farewell to Faramir
03:30:52.413 : en:65. "The Battle for Middle-Earth is About to Begin"
03:32:32.096 : en:66. Gollum's Plan
03:34:56.240 : en:67. End Credits
03:43:52.525 : en:68. Fan Club Credits

Screenshots





--Властелин колец: Возвращение Короля / The Lord of the Rings: The Return of the King
«There can be no triumph without loss. No victory without suffering. No freedom without sacrifice»
[Год выпуска: 2003
Страна: США, Новая Зеландия
Жанр: Боевик, фэнтези, приключения.
Продолжительность: 04:23:11--Перевод: Профессиональный (полное дублирование) + Профессиональный (многоголосый закадровый)
Оригинальная аудиодорожка: Английский
Cубтитры: Русские (форс и полные), английские (форс и полные).--Режиссер: Питер Джексон / Peter Jackson--В ролях: Элайджа Вуд, Шон Эстин, Вигго Мортенсен, Иэн МакКеллен, Доминик Монахэн, Билли Бойд, Шон Бин, Орландо Блум, Джон Рис-Дэвис, Кристофер Ли--Описание:
Последняя часть трилогии о Кольце Всевластия и о героях, взявших на себя бремя спасения Средиземья. Повелитель сил Тьмы Саурон направляет свои бесчисленные рати под стены Минас-Тирита, крепости Последней Надежды. Он предвкушает близкую победу, но именно это и мешает ему заметить две крохотные фигурки — хоббитов, приближающихся к Роковой Горе, где им предстоит уничтожить Кольцо Всевластия. Улыбнется ли им счастье?--   --Видео: MPEG-4 AVC / High Profile 4.1 / 1920x796 / 23,976 fps / 12500 kbps
Аудио 1: Русский / AC3 6ch / 48 KHz / 640 kbps |MVO Pozitiv MM|
Аудио 2: Русский / AC3 6ch / 48 KHz / 448 kbps |Дубляж + вставки Pozitiv MM на расш. места|
Аудио 2: Английский / AC3 6ch / 48 KHz / 640 kbps |Original|

MediaInfo

Формат : Matroska
Версия формата : Version 4 / Version 2
Размер файла : 26,2 Гбайт
Продолжительность : 4 ч. 23 м.
Общий поток : 14,2 Мбит/сек
Название фильма : The.Lord.of.the.Rings.The.Return.of.the.King.2003.BDRip.1080p.by.Yusuf
Дата кодирования : UTC 2014-06-30 07:30:08
Программа кодирования : mkvmerge v6.0.0 ('Coming Up For Air') built on Jan 20 2013 09:52:00
Библиотека кодирования : libebml v1.3.0 + libmatroska v1.4.0
Attachment : Yes / Yes / Yes
Видео
Идентификатор : 1
Формат : AVC
Формат/Информация : Advanced Video Codec
Профиль формата : [email protected]
Параметр CABAC формата : Да
Параметр ReFrames формата : 4 кадра
Идентификатор кодека : V_MPEG4/ISO/AVC
Продолжительность : 4 ч. 23 м.
Битрейт : 12,5 Мбит/сек
Ширина : 1920 пикселей
Высота : 796 пикселей
Соотношение сторон : 2,40:1
Режим частоты кадров : Постоянный
Частота кадров : 23,976 кадра/сек
Цветовое пространство : YUV
Субдискретизация насыщенности : 4:2:0
Битовая глубина : 8 бит
Тип развёртки : Прогрессивная
Бит/(Пиксели*Кадры) : 0.341
Размер потока : 22,5 Гбайт (86%)
Библиотека кодирования : x264 core 138 r2358 9e941d1
Настройки программы : cabac=1 / ref=4 / deblock=1:-3:-3 / analyse=0x3:0x113 / me=umh / subme=10 / psy=1 / psy_rd=1.00:0.00 / mixed_ref=1 / me_range=32 / chroma_me=1 / trellis=2 / 8x8dct=1 / cqm=0 / deadzone=21,11 / fast_pskip=1 / chroma_qp_offset=-2 / threads=12 / lookahead_threads=1 / sliced_threads=0 / nr=0 / decimate=1 / interlaced=0 / bluray_compat=0 / constrained_intra=0 / bframes=7 / b_pyramid=2 / b_adapt=1 / b_bias=0 / direct=1 / weightb=1 / open_gop=0 / weightp=2 / keyint=240 / keyint_min=23 / scenecut=40 / intra_refresh=0 / rc_lookahead=40 / rc=2pass / mbtree=1 / bitrate=12500 / ratetol=1.0 / qcomp=0.60 / qpmin=0 / qpmax=69 / qpstep=4 / cplxblur=20.0 / qblur=0.5 / vbv_maxrate=50000 / vbv_bufsize=62500 / nal_hrd=none / ip_ratio=1.40 / aq=1:1.00
Язык : English
Default : Да
Forced : Нет
Аудио #1
Идентификатор : 2
Формат : AC-3
Формат/Информация : Audio Coding 3
Расширение режима : CM (complete main)
Параметр Endianness формата : Big
Идентификатор кодека : A_AC3
Продолжительность : 4 ч. 23 м.
Вид битрейта : Постоянный
Битрейт : 640 Кбит/сек
Каналы : 6 каналов
Расположение каналов : Front: L C R, Side: L R, LFE
Частота : 48,0 КГц
Битовая глубина : 16 бит
Метод сжатия : С потерями
Размер потока : 1,18 Гбайт (4%)
Заголовок : Pozitiv MM
Язык : Russian
Default : Да
Forced : Нет
Аудио #2
Идентификатор : 3
Формат : AC-3
Формат/Информация : Audio Coding 3
Расширение режима : CM (complete main)
Параметр Endianness формата : Big
Идентификатор кодека : A_AC3
Продолжительность : 4 ч. 23 м.
Вид битрейта : Постоянный
Битрейт : 448 Кбит/сек
Каналы : 6 каналов
Расположение каналов : Front: L C R, Side: L R, LFE
Частота : 48,0 КГц
Битовая глубина : 16 бит
Метод сжатия : С потерями
Размер потока : 844 Мбайт (3%)
Заголовок : Dub + Pozitiv MM
Язык : Russian
Default : Нет
Forced : Нет
Аудио #3
Идентификатор : 4
Формат : AC-3
Формат/Информация : Audio Coding 3
Расширение режима : CM (complete main)
Параметр Endianness формата : Big
Идентификатор кодека : A_AC3
Продолжительность : 4 ч. 23 м.
Вид битрейта : Постоянный
Битрейт : 640 Кбит/сек
Каналы : 6 каналов
Расположение каналов : Front: L C R, Side: L R, LFE
Частота : 48,0 КГц
Битовая глубина : 16 бит
Метод сжатия : С потерями
Размер потока : 1,18 Гбайт (4%)
Язык : English
Default : Нет
Forced : Нет
Текст #1
Идентификатор : 5
Формат : ASS
Идентификатор кодека : S_TEXT/ASS
Идентификатор кодека/Информация : Advanced Sub Station Alpha
Метод сжатия : Без потерь
Заголовок : Forced Pozitiv MM
Язык : Russian
Default : Да
Forced : Нет
Текст #2
Идентификатор : 6
Формат : UTF-8
Идентификатор кодека : S_TEXT/UTF8
Идентификатор кодека/Информация : UTF-8 Plain Text
Заголовок : Pozitiv MM
Язык : Russian
Default : Нет
Forced : Нет
Текст #3
Идентификатор : 7
Формат : UTF-8
Идентификатор кодека : S_TEXT/UTF8
Идентификатор кодека/Информация : UTF-8 Plain Text
Заголовок : Henneth-annun
Язык : Russian
Default : Нет
Forced : Нет
Текст #4
Идентификатор : 8
Формат : ASS
Идентификатор кодека : S_TEXT/ASS
Идентификатор кодека/Информация : Advanced Sub Station Alpha
Метод сжатия : Без потерь
Заголовок : Forsed
Язык : English
Default : Нет
Forced : Нет
Текст #5
Идентификатор : 9
Формат : ASS
Идентификатор кодека : S_TEXT/ASS
Идентификатор кодека/Информация : Advanced Sub Station Alpha
Метод сжатия : Без потерь
Язык : English
Default : Нет
Forced : Нет
Текст #6
Идентификатор : 10
Формат : PGS
Режим смешивания : zlib
Идентификатор кодека : S_HDMV/PGS
Идентификатор кодека/Информация : The same subtitle format used on BDs/HD-DVDs
Заголовок : PGS Forced Pozitiv MM
Язык : Russian
Default : Нет
Forced : Нет
Текст #7
Идентификатор : 11
Формат : PGS
Режим смешивания : zlib
Идентификатор кодека : S_HDMV/PGS
Идентификатор кодека/Информация : The same subtitle format used on BDs/HD-DVDs
Заголовок : PGS Pozitiv MM
Язык : Russian
Default : Нет
Forced : Нет
Текст #8
Идентификатор : 12
Формат : PGS
Режим смешивания : zlib
Идентификатор кодека : S_HDMV/PGS
Идентификатор кодека/Информация : The same subtitle format used on BDs/HD-DVDs
Заголовок : PGS Forced
Язык : English
Default : Нет
Forced : Нет
Текст #9
Идентификатор : 13
Формат : PGS
Режим смешивания : zlib
Идентификатор кодека : S_HDMV/PGS
Идентификатор кодека/Информация : The same subtitle format used on BDs/HD-DVDs
Заголовок : PGS SDH
Язык : English
Default : Нет
Forced : Нет
Меню
00:00:00.000 : en: 1. The Finding of the Ring
00:06:24.342 : en: 2. Journey to the Cross-Roads
00:09:21.394 : en: 3. The Road to Isengard
00:11:21.848 : en: 4. The Voice of Saruman
00:18:23.311 : en: 5. Return to Edoras
00:23:05.009 : en: 6. Gollum's Villany
00:27:03.330 : en: 7. Eowyn's Dream
00:29:00.697 : en: 8. The Palantir
00:37:06.433 : en: 9. Arwen's Vision
00:40:02.567 : en:10. The Reforging of Narsil
00:42:03.229 : en:11. Minas Tirith
00:47:52.203 : en:12. The Decline of Gondor
00:50:18.641 : en:13. Cross-Roads of the Fallen King
00:52:18.761 : en:14. "The Deep Breath Before the Plunge"
00:55:35.332 : en:15. Minas Morgul
00:59:36.406 : en:16. Sam's Warning
01:00:23.703 : en:17. Pippin's Task
01:00:50.605 : en:18. Osgiliath Invaded
01:04:30.075 : en:19. The Lighting of the Beacons
01:07:16.032 : en:20. Theoden's Decision
01:10:35.314 : en:21. The Fall of Osgiliath
01:14:54.824 : en:22. The Wizard's Pupil
01:17:21.971 : en:23. The Stairs of Cirith Ungol
01:19:21.799 : en:24. "Courage Is the Best Defense"
01:20:01.088 : en:25. Peregrin of the Tower Guard
01:21:26.799 : en:26. Allegiance to Denethor
01:23:48.941 : en:27. The Parting of Sam and Frodo
01:29:08.593 : en:28. The Sacrifice of Faramir
01:33:57.590 : en:29. Marshalling at Dunharrow
01:38:08.049 : en:30. Anduril - Flame of the West
01:42:49.705 : en:31. Aragorn Takes the Paths of the Dead
01:45:34.245 : en:32. "No More Despair"
01:46:57.453 : en:33. Dwimorberg - the Haunted Mountain
01:49:24.433 : en:34. The Muster of Rohan
01:51:09.997 : en:35. The Paths of the Dead
01:58:39.696 : en:36. The Siege of Gondor
02:07:41.500 : en:37. The Corsairs of Umbar
02:08:42.779 : en:38. Shelob's Lair
02:17:50.451 : en:39. Merry's Simple Courage
02:19:40.770 : en:40. Grond - The Hammer of the Underworld
02:20:17.139 : en:41. The Tomb of the Stewards
02:21:50.775 : en:42. Breaking the Gate of Gondor
02:22:57.591 : en:43. The Choices of Master Samwise
02:28:59.328 : en:44. Denethor's Madness
02:30:04.643 : en:45. The Witch King's Hour
02:32:29.663 : en:46. The Ride of the Rohirrim
02:36:44.084 : en:47. The Pyre of Denethor
02:38:51.169 : en:48. The Battle of Pelennor Fields
02:43:46.714 : en:49. "A Far Green Country"
02:45:17.138 : en:50. The Nazugl and His Prey
02:47:03.077 : en:51. The Black Ships
02:47:55.504 : en:52. Shieldmaiden of Rohan
02:48:39.757 : en:53. Victory at Minas Tirith
02:51:15.454 : en:54. The Passing of Theoden
02:53:18.160 : en:55. Oaths Fulfilled
02:54:25.102 : en:56. The Houses of Healing
02:56:41.113 : en:57. Pippin Looks After Merry
02:57:33.165 : en:58. The Tower of Cirith Ungol
03:04:29.080 : en:59. The Last Debate
03:06:11.433 : en:60. Aragorn Masters the Palantir
03:07:40.522 : en:61. The Captain and the White Lady
03:08:30.655 : en:62. In the Company of Orcs
03:12:12.043 : en:63. The Land of Shadow
03:16:23.753 : en:64. The Mouth of Sauron
03:19:39.657 : en:65. The Black Gate Opens
03:23:13.454 : en:66. "I Can't Carry It for You... But I Can Carry You"
03:25:26.253 : en:67. The Last Move
03:26:29.358 : en:68. Mount Doom
03:28:25.432 : en:69. "The Eagles Are Coming!"
03:28:59.758 : en:70. The Crack of Doom
03:34:38.012 : en:71. Sauron Defeated
03:36:51.396 : en:72. The End of All Things
03:40:20.396 : en:73. The Fellowship Reunited
03:42:43.497 : en:74. The Return of the King
03:47:36.540 : en:75. Homeward Bound
03:52:18.447 : en:76. The Grey Havens
04:01:37.047 : en:77. End Credits
04:12:44.463 : en:78. Fan Club Credits

Screenshots





Качество: BDRip 1080p
Релиз: Юсуф
За исходники спасибо: Hansmer и всем кто приложил к ним руки
Контейнер: MKV
Сохранены оригинальные чаптеры как на Blu-Ray

Создавать темы 20-Мар-2015 17:02

[Профиль]  [ЛС] 

yusuf.0088 ®

Стаж: 4 года 2 месяца

Сообщений: 116

Симпатии: 69

Перенесите в соответствующий раздел пожалуйста.

Создавать темы 20-Мар-2015 17:03

[Профиль]  [ЛС] 

mongoloid9

Стаж: 5 лет 6 месяцев

Сообщений: 172

Симпатии: 12

это же не 3D? золото бы..

Создавать темы 20-Мар-2015 17:28

[Профиль]  [ЛС] 

Топик был перенесен из форума 3D Кинофильмы в форум Зарубежное кино
Mixer City

Создавать темы 20-Мар-2015 19:39

 

mongoloid9

Стаж: 5 лет 6 месяцев

Сообщений: 172

Симпатии: 12

у меня почему то скачанное учитывается.. удалил

Создавать темы 22-Мар-2015 08:29

[Профиль]  [ЛС] 

ekobana

Стаж: 5 лет 3 месяца

Сообщений: 26

Симпатии: 14

на mytorrents больше личеров. сам оттуда скачал

Создавать темы 22-Мар-2015 16:30

[Профиль]  [ЛС] 

yusuf.0088 ®

Стаж: 4 года 2 месяца

Сообщений: 116

Симпатии: 69

927083на mytorrents больше личеров. сам оттуда скачал
Вы не могли оттуда скачать, так как я там еще не выкладывал.

Создавать темы 23-Мар-2015 09:04

[Профиль]  [ЛС] 

ekobana

Стаж: 5 лет 3 месяца

Сообщений: 26

Симпатии: 14

я не говорил, что вы выкладывали, но я скачал оттуда

Создавать темы 23-Мар-2015 10:44

[Профиль]  [ЛС] 

yusuf.0088 ®

Стаж: 4 года 2 месяца

Сообщений: 116

Симпатии: 69

927206я не говорил, что вы выкладывали, но я скачал оттуда
Не знаю что вы там скачали, но точно не мой релиз.

Создавать темы 23-Мар-2015 11:19

[Профиль]  [ЛС] 

yusuf.0088 ®

Стаж: 4 года 2 месяца

Сообщений: 116

Симпатии: 69

ekobana, как я и сказал - там совсем другое.
Тут видеоряд приличней и нет "лишних", на мой взгляд, звуковых дорожек.

Создавать темы 23-Мар-2015 14:24

[Профиль]  [ЛС] 

Sara

Стаж: 5 лет 1 месяц

Сообщений: 48

Симпатии: 10

yusuf.0088, Как мне подключиться к вам что бы нормально качать ?? А то у меня УзОнлайн вас не видит.

Создавать темы 26-Мар-2015 17:04

[Профиль]  [ЛС] 

yusuf.0088 ®

Стаж: 4 года 2 месяца

Сообщений: 116

Симпатии: 69

Sara, честно, понятия не имею.

Создавать темы 26-Мар-2015 22:47

[Профиль]  [ЛС] 

Sara

Стаж: 5 лет 1 месяц

Сообщений: 48

Симпатии: 10

yusuf.0088, Ну дайте мне ваш айпи адрес в лс, я добавлю вас в пиры.

Создавать темы 27-Мар-2015 00:53

[Профиль]  [ЛС] 

ekobana

Стаж: 5 лет 3 месяца

Сообщений: 26

Симпатии: 14

927708Ну дайте мне ваш айпи адрес в лс, я добавлю вас в пиры.
продвинутая девушка))

Создавать темы 27-Мар-2015 10:43

[Профиль]  [ЛС] 

Sara

Стаж: 5 лет 1 месяц

Сообщений: 48

Симпатии: 10

ekobana, проблемы ?

Создавать темы 28-Мар-2015 05:24

[Профиль]  [ЛС] 
Показать сообщения:    
Ответить на тему

Текущее время: 17-Дек 18:42

Часовой пояс: UTC + 5



Вы не можете начинать темы
Вы не можете отвечать на сообщения
Вы не можете редактировать свои сообщения
Вы не можете удалять свои сообщения
Вы не можете голосовать в опросах
Вы не можете прикреплять файлы к сообщениям
Вы не можете скачивать файлы