Королевство двух сердец / King 2 Hearts [20/20] (Lee Jae Gyoo) [2012 г., романтика, комедия, драма, HDTVRip] [RAW] [720p] DVO GREEN TEA

Ответить на тему
 

bbk ®

Стаж: 7 лет

Сообщений: 435

Симпатии: 479

Королевство двух сердец / King 2 Hearts- Год выпуска: 2012
Страна: Южная Корея
Жанр: Романтика, комедия, драма
Продолжительность: 20 серий по 63 мин.
Перевод: Двухголосый (закадровый) GREEN TEA (Ярослав Мельник и Марина Кириченко)
Режиссер: Lee Jae Gyoo
В ролях: Ha Ji Won - Kim Hang Ah, Lee Seung Gi - Lee Jae Ha, Jo Jung Suk - Eun Si Kyung, Lee Yoon Ji - Lee Jae Shin, Yoon Je Moon - Kim Bong Goo и др.
Описание: Политическая борьба Северной и Южной Корей не прекращается.
В центре интриг оказываются Принц Южной Кореи Ли Чжэ Ха и девушка из влиятельной северокорейской семьи Ким Хан А. Они из разных миров, между ними не только политические барьеры, но и стена взаимного непонимания. Она военный инструктор из враждебной страны. Он принц из другого политического мира. Но Ли Чжэ Ха придется жениться на тридцатилетней Ким Хан А, ведь их поймали при «странных обстоятельствах». А может быть эти обстоятельства вовсе не странные? И кому-то просто так надо?
 
Качество: HDTVRip
Формат: AVI
Видео: H264, 1280x720, 3000 Кбит/с, 29.970 fps
Аудио: MP3, 48 kHz, 192 Кбит/с, 2 канала

MediaInfo

General
    Complete name : [GREEN TEA] Королевство двух сердец 720p\[GREEN TEA] Королевство двух сердец 01 HD.avi
    Format : AVI
    Format/Info : Audio Video Interleave
    File size : 1.44 GiB
    Duration : 1h 3mn
    Overall bit rate : 3 229 Kbps
    Writing application : VirtualDubMod 1.5.10.2 (build 2540/release)
    Writing library : VirtualDubMod build 2540/release
  Video #0
    ID : 0
    Format : AVC
    Format/Info : Advanced Video Codec
    Format profile : [email protected]
    Format settings, CABAC : Yes
    Format settings, ReFrames : 4 frames
    Codec ID : H264
    Duration : 1h 3mn
    Bit rate : 3 000 Kbps
    Width : 1 280 pixels
    Height : 720 pixels
    Display aspect ratio : 16:9
    Frame rate : 29.970 fps
    Color space : YUV
    Chroma subsampling : 4:2:0
    Bit depth : 8 bits
    Scan type : Progressive
    Bits/(Pixel*Frame) : 0.109
    Stream size : 1.35 GiB (94%)
    Writing library : x264 core 116 r2057kMod 0ba8a9c
    Encoding settings : cabac=1 / ref=4 / deblock=1:0:0 / analyse=0x3:0x13 / me=umh / subme=7 / psy=1 / fade_compensate=0.00 / psy_rd=1.00:0.00 / mixed_ref=1 / me_range=16 / chroma_me=1 / trellis=1 / 8x8dct=1 / cqm=0 / deadzone=21,11 / fast_pskip=1 / chroma_qp_offset=-2 / threads=4 / sliced_threads=1 / slices=4 / nr=0 / decimate=1 / interlaced=0 / bluray_compat=0 / constrained_intra=0 / bframes=0 / weightp=2 / keyint=250 / keyint_min=25 / scenecut=40 / intra_refresh=0 / rc=abr / mbtree=0 / bitrate=3000 / ratetol=1.0 / qcomp=0.60 / qpmin=10 / qpmax=51 / qpstep=4 / ip_ratio=1.40 / aq=1:1.00
  Audio #1
    ID : 1
    Format : MPEG Audio
    Format version : Version 1
    Format profile : Layer 3
    Mode : Joint stereo
    Codec ID : 55
    Codec ID/Hint : MP3
    Duration : 1h 3mn
    Bit rate mode : Constant
    Bit rate : 192 Kbps
    Channel(s) : 2 channels
    Sampling rate : 48.0 KHz
    Compression mode : Lossy
    Stream size : 87.8 MiB (6%)
    Alignment : Aligned on interleaves
    Interleave, duration : 33 ms (1.00 video frame)
    Interleave, preload duration : 504 ms

Скриншоты



Последний раз редактировалось: bbk (2015-05-06 17:13), всего редактировалось 2 раз(а)

Создавать темы 20-Мар-2015 18:32

[Профиль]  [ЛС] 

FoxSage

Стаж: 4 года 4 месяца

Сообщений: 197

Симпатии: 19

оЧЕНЬ ВЫСОКИЙ РЕЙТИНГ

Создавать темы 22-Мар-2015 17:05

[Профиль]  [ЛС] 

Топик был перенесен из форума Азиатские сериалы в форум Полные релизы
xxxxx

Создавать темы 06-Май-2015 17:13

 
Показать сообщения:    
Ответить на тему

Текущее время: 18-Ноя 05:58

Часовой пояс: UTC + 5



Вы не можете начинать темы
Вы не можете отвечать на сообщения
Вы не можете редактировать свои сообщения
Вы не можете удалять свои сообщения
Вы не можете голосовать в опросах
Вы не можете прикреплять файлы к сообщениям
Вы не можете скачивать файлы