Императрица Ки / Ki Hwanghoo / Qi Empress [51/51] [2013 г., история, романтика, экшн, политика, драма, HDTVRip] [RAW] [720p] DVO GREEN TEA

Ответить на тему
 

bbk ®

Стаж: 7 лет

Сообщений: 435

Симпатии: 479

Императрица Ки / Ki Hwanghoo / Qi Empress- Год выпуска: 2013
Страна: Южная Корея
Жанр: Исторический, мелодрама, дорама
Продолжительность: 51x[00:59]
Перевод: Двухголосый (закадровый) GREEN TEA (Марина Кириченко и Франк Цветков)
Режиссер: Хан Хи
В ролях: Чжи Вон Ха, Чжин Мо Чу, Чан Ук Чжи, Чжин Хи Пэк, Ён Хо Ким, И Хан Чжин, Со Хён Ким (II), Кук Хван Чон, Чжэ Ён Ли, Чжэ Юн Чо, Вон Чжон Ли, Кван Су Чха, Ун Ин Чон, О Чжун Квон, А Чон Юн, Чжу Ын Им, Му Сон Чхве, Мун Сик Ли, Мён Су Ким (II), Чон Хён Ким, До Чжин Чха, Хён Бом Ким, Ин Ён Ю, И Ён Сим
О фильме: Историческая сага о Ки Хван Ху, которая родилась в Корее и стала затем императрицей китайской династии Юань. Борьба с соперницей за сердце императора и борьба двух правителей за сердце героини — любовные треугольники в этой истории масштабны и преисполнены политики.
 
Качество: HDTVRip
Формат: AVI
Видео: H264, 1280x720, 3000 Кбит/с, 29.970 fps
Аудио: MP3, 48 kHz, 192 Кбит/с, 2 канала

MediaInfo

General
    Complete name : [GREEN TEA] Императрица Ки\[GREEN TEA] Императрица Ки 01.avi
    Format : AVI
    Format/Info : Audio Video Interleave
    File size : 1.31 GiB
    Duration : 59mn 8s
    Overall bit rate : 3 164 Kbps
    Writing application : VirtualDubMod 1.5.10.2 (build 2540/release)
    Writing library : VirtualDubMod build 2540/release
  Video #0
    ID : 0
    Format : AVC
    Format/Info : Advanced Video Codec
    Format profile : [email protected]
    Format settings, CABAC : No
    Format settings, ReFrames : 1 frame
    Codec ID : H264
    Duration : 59mn 8s
    Bit rate : 2 916 Kbps
    Width : 1 280 pixels
    Height : 720 pixels
    Display aspect ratio : 16:9
    Frame rate : 29.970 fps
    Color space : YUV
    Chroma subsampling : 4:2:0
    Bit depth : 8 bits
    Scan type : Progressive
    Bits/(Pixel*Frame) : 0.106
    Stream size : 1.25 GiB (96%)
    Writing library : x264 core 116 r2057kMod 0ba8a9c
    Encoding settings : cabac=0 / ref=1 / deblock=1:0:0 / analyse=0x3:0x13 / me=umh / subme=7 / psy=1 / fade_compensate=0.00 / psy_rd=1.00:0.00 / mixed_ref=0 / me_range=16 / chroma_me=1 / trellis=1 / 8x8dct=1 / cqm=0 / deadzone=21,11 / fast_pskip=1 / chroma_qp_offset=-2 / threads=4 / sliced_threads=1 / slices=4 / nr=0 / decimate=1 / interlaced=0 / bluray_compat=0 / constrained_intra=0 / bframes=0 / weightp=2 / keyint=250 / keyint_min=25 / scenecut=40 / intra_refresh=0 / rc=abr / mbtree=0 / bitrate=2916 / ratetol=1.0 / qcomp=0.60 / qpmin=10 / qpmax=51 / qpstep=4 / ip_ratio=1.40 / aq=1:1.00
  Audio #1
    ID : 1
    Format : MPEG Audio
    Format version : Version 1
    Format profile : Layer 3
    Mode : Joint stereo
    Mode extension : MS Stereo
    Codec ID : 55
    Codec ID/Hint : MP3
    Duration : 59mn 8s
    Bit rate mode : Constant
    Bit rate : 128 Kbps
    Channel(s) : 2 channels
    Sampling rate : 48.0 KHz
    Compression mode : Lossy
    Stream size : 54.1 MiB (4%)
    Alignment : Aligned on interleaves
    Interleave, duration : 33 ms (1.00 video frame)
    Interleave, preload duration : 504 ms

Скриншоты



Последний раз редактировалось: bbk (2015-09-07 07:31), всего редактировалось 11 раз(а)

Создавать темы 20-Мар-2015 19:07

[Профиль]  [ЛС] 

Топик был перенесен из форума неоформлено/недооформлено в форум Азиатские сериалы
bbk

Создавать темы 21-Мар-2015 17:34

 

bbk ®

Стаж: 7 лет

Сообщений: 435

Симпатии: 479

торрент обновлен. кто находился на закачке, обновите торрент файл и перехешируйте серии.


Последний раз редактировалось: bbk (2015-05-08 12:19), всего редактировалось 2 раз(а)

Создавать темы 21-Мар-2015 17:48

[Профиль]  [ЛС] 

Аюбхон

Стаж: 4 года 10 месяцев

Сообщений: 13

Симпатии: 2

Спасибо автору!

Создавать темы 19-Апр-2015 12:24

[Профиль]  [ЛС] 

Аюбхон

Стаж: 4 года 10 месяцев

Сообщений: 13

Симпатии: 2

Большое спасибо автору!!!!

Создавать темы 08-Май-2015 13:55

[Профиль]  [ЛС] 

bbk ®

Стаж: 7 лет

Сообщений: 435

Симпатии: 479


Создавать темы 27-Май-2015 23:03

[Профиль]  [ЛС] 

alisher.1989

Стаж: 5 лет 8 месяцев

Сообщений: 92

Симпатии: 6

bbk, огромное спасибо за эту шикарную дораму +10, и если можно релизируйте дораму "Впечатляющая политика" конечно же с озвучкой, заранее спс!

Создавать темы 28-Май-2015 09:20

[Профиль]  [ЛС] 

pensar

Стаж: 5 лет 9 месяцев

Сообщений: 21

Симпатии: 1

Встаньте на раздачу пожалуйста

Создавать темы 20-Авг-2015 00:11

[Профиль]  [ЛС] 

pensar

Стаж: 5 лет 9 месяцев

Сообщений: 21

Симпатии: 1

Добавьте скорости плз

Создавать темы 20-Авг-2015 13:56

[Профиль]  [ЛС] 

Koron

Стаж: 1 год 8 месяцев

Сообщений: 4

Вернитесь пожалуйста на раздачу!

Создавать темы 10-Июн-2016 20:26

[Профиль]  [ЛС] 

Koron

Стаж: 1 год 8 месяцев

Сообщений: 4

Кто-нибудь сможет пожалуйста записать данный сериал на жесткий диск? Буду очень благодарен.

Создавать темы 11-Июн-2016 14:04

[Профиль]  [ЛС] 

bbk ®

Стаж: 7 лет

Сообщений: 435

Симпатии: 479

Koron, ваш провайдер саркор? трекер выдавал ip89.146.x.x, я на раздаче, но так никто не подключился, проверьте разрешения в файрволе если есть, переустановите торент-клиент, оставляйте включенным торент онлайн на ночь, саркоровцам скорость - до 100мбит

Создавать темы 11-Июн-2016 18:58

[Профиль]  [ЛС] 

Koron

Стаж: 1 год 8 месяцев

Сообщений: 4

976128Koron, ваш провайдер саркор? трекер выдавал ip89.146.x.x, я на раздаче, но так никто не подключился, проверьте разрешения в файрволе если есть, переустановите торент-клиент, оставляйте включенным торент онлайн на ночь, саркоровцам скорость - до 100мбит
Да, я с Саркора. У меня тоже оптика, но почему-то все никак не могу к вам подключиться. Попробую последовать вашим советам

Создавать темы 12-Июн-2016 00:20

[Профиль]  [ЛС] 

Koron

Стаж: 1 год 8 месяцев

Сообщений: 4

Все равно не могу подключиться. Может все дело в Тередо, который я настроил для трекера Ooops?

Создавать темы 12-Июн-2016 00:28

[Профиль]  [ЛС] 
Показать сообщения:    
Ответить на тему

Текущее время: 23-Ноя 12:48

Часовой пояс: UTC + 5



Вы не можете начинать темы
Вы не можете отвечать на сообщения
Вы не можете редактировать свои сообщения
Вы не можете удалять свои сообщения
Вы не можете голосовать в опросах
Вы не можете прикреплять файлы к сообщениям
Вы не можете скачивать файлы