Мы — одна команда / We Are Marshall (МакДжи / McG) [2006 г., драма, история, спорт, HDRip]

Ответить на тему
 

[email protected] ®

Стаж: 4 года 5 месяцев

Сообщений: 336

Симпатии: 143

We Are Marshall
Мы - одна команда-Год выпуска: 2006
Страна: США
Жанр: драма, cпорт
Продолжительность: 02:11:33
Перевод: Профессиональный (многоголосый, закадровый)
Субтитры: нет-Режиссер: МакДжи-В ролях: Мэттью МакКонахи, Мэттью Фокс, Энтони Мэки, Дэвид Стретхерн, Йан МакШейн, Кейт Мара, Дженьюари Джонс, Кимберли Уильямс, Арлен Эскарпета, Роберт Патрик и др.-Описание: В основу фильма легла реальная трагедия, произошедшая в США в 1970 году. Футбольная команда университета «Маршалл», возвращаясь в родной город после очередной игры, разбилась в авиакатастрофе. Но нашлись люди, которые решили сделать невозможное и в память о погибших собрать практически с нуля новую команду…- -Качество: HDRip - рип с BDRip 1080p
Формат: AVI-Видео: 720x304 (2.37:1), 23.976 fps, XviD build 50 ~1380 kbps avg, 0.26 bit/pixel
Аудио: 48 kHz, AC3 Dolby Digital, 2/0 (L,R) ch, ~192.00 kbps avg-

MediaInfo

General
Complete name                  : F:\Video\Movie\My_-_odna_komanda_HDRip.avi
Format                         : AVI
Format/Info                    : Audio Video Interleave
File size                      : 1.45 GiB
Duration                       : 2h 11mn
Overall bit rate               : 1 582 Kbps
Writing application            : VirtualDubMod 1.5.10.2 (build 2540/release)
Writing library                : VirtualDubMod build 2540/release
Video
ID                             : 0
Format                         : MPEG-4 Visual
Format profile                 : Advanced [email protected]
Format settings, BVOP          : Yes
Format settings, QPel          : No
Format settings, GMC           : No warppoints
Format settings, Matrix        : Custom
Codec ID                       : XVID
Codec ID/Hint                  : XviD
Duration                       : 2h 11mn
Bit rate                       : 1 380 Kbps
Width                          : 720 pixels
Height                         : 304 pixels
Display aspect ratio           : 2.35:1
Frame rate                     : 23.976 fps
Color space                    : YUV
Chroma subsampling             : 4:2:0
Bit depth                      : 8 bits
Scan type                      : Progressive
Compression mode               : Lossy
Bits/(Pixel*Frame)             : 0.263
Stream size                    : 1.27 GiB (87%)
Writing library                : XviD 1.2.1 (UTC 2008-12-04)
Audio
ID                             : 1
Format                         : AC-3
Format/Info                    : Audio Coding 3
Mode extension                 : CM (complete main)
Format settings, Endianness    : Big
Codec ID                       : 2000
Duration                       : 2h 11mn
Bit rate mode                  : Constant
Bit rate                       : 192 Kbps
Channel(s)                     : 2 channels
Channel positions              : Front: L R
Sampling rate                  : 48.0 KHz
Bit depth                      : 16 bits
Compression mode               : Lossy
Stream size                    : 181 MiB (12%)
Alignment                      : Split accross interleaves
Interleave, duration           : 42 ms (1.00 video frame)
Interleave, preload duration   : 500 ms

Скриншоты



Создавать темы 20-Мар-2015 20:13

[Профиль]  [ЛС] 

Silver Boy

Стаж: 2 года 9 месяцев

Сообщений: 48

Симпатии: 164

[email protected]
Как фильм? ваше мнение?

Создавать темы 20-Мар-2015 20:22

[Профиль]  [ЛС] 
Показать сообщения:    
Ответить на тему

Текущее время: 18-Дек 13:44

Часовой пояс: UTC + 5



Вы не можете начинать темы
Вы не можете отвечать на сообщения
Вы не можете редактировать свои сообщения
Вы не можете удалять свои сообщения
Вы не можете голосовать в опросах
Вы не можете прикреплять файлы к сообщениям
Вы не можете скачивать файлы