Дьявол во плоти / Diavolo in corpo (Марко Беллоккьо / Marco Bellocchio) [1986, Италия, Франция, драма, мелодрама, DVDRip] DVO (НТВ+) + AVO (Алексеев) + Original (Ita)

Ответить на тему
 

kat222000 ®

Стаж: 6 лет 4 месяца

Сообщений: 608

Симпатии: 1055

-Дьявол во плоти / Diavolo in corpo-Страна: Италия, Франция
Жанр: драма, мелодрама
Год выпуска: 1986
Продолжительность: 01:54:50
Перевод 1: Профессиональный (двухголосый закадровый) [НТВ+]
Перевод 2: Авторский (одноголосый закадровый) [Антон Алексеев]
Оригинальная аудиодорожка: [итальянский]-Режиссер: Марко Беллоккьо / Marco Bellocchio-В ролях: Марушка Детмерс, Федерико Питцалис, Анита Лауренци, Альберто Ди Стасио, Риккардо Де Торребруна, Катрин Дайамант, Анна Орсо, Лидия Брокколино, Стефано Аббати, Клаудио Ботоссо-Описание: Повтор классического французского фильма 1946 года. Голландская актриса Детмерс с риском для своей карьеры сыграла в этом очень современном фильме о любовном треугольнике, в который, помимо нее, вошли ее дружок-террорист и мальчик-подросток. Она на грани безумия разрывается, не зная, кого из них ей хочется больше.- -Возраст: зрителям, достигшим 18 лет-Рейтинг MPAA: лицам до 17 лет обязательно присутствие взрослого- -Качество: DVDRip
Формат: AVI
Видео кодек: XviD
Аудио кодек: AC3
Видео: Xvid, 704x384, 23.976fps, 1 965kbps
Аудио 1: Dolby AC3, 48000Hz, 2 ch, 192kbps [НТВ+]
Аудио 2: Dolby AC3, 48000Hz, 2 ch, 192kbps [Антон Алексеев]
Аудио 3: Dolby AC3, 48000Hz, 2 ch, 192kbps [итальянский]-

...из книги «3500 кинорецензий»

Эстетская драма с элементами эротической мелодрамы
Молодой студент Андреа влюбляется в красивую женщину Джулию, помолвленную с террористом Джакомо Пулчини из богатой семьи, который находится под следствием. А Джулия, несмотря на протесты матери Джакомо и отца Андреа, отвечает на чувства этого юноши взаимностью.
Если бы фильм не назывался «Дьявол во плоти», трудно было бы вообще догадаться, что он снят по мотивам романа известного французского писателя Раймона Радиге (между прочим, в титрах нет даже ссылки на это) и является третьей по счёту экранизацией, самой популярной из которых была в 1948 году версия Клода Отан-Лара с участием Жерара Филипа. От романтической истории столкновения любви с моральными, социальными и прочими предрассудками во время первой мировой войны остался в киноварианте Марко Беллоккьо лишь костяк сюжета, который помещён в абсолютно иную среду и переосмыслен до неузнаваемости, согласно собственным пристрастиям итальянского режиссёра.
В его трактовке получилась не очень-то внятная, к тому же самоповторная вариация на тему безумия: именно оно бросает дерзкий вызов всем правилам приличия и бунтует против ещё более деградировавшего института буржуазной семьи и всего общества. Эпатаж и скандальный характер знаменитого дебюта Беллоккьо «Кулаки в кармане» (1965) всё-таки имели трагический излом, интуитивно и подсознательно предсказывая бесплодность тотального, саморазрушительного протеста против устоев. А картина «Дьявол во плоти» отражает состояние растерянности, сумятицы, запутанности и нерасшифровываемости действительности, в которой, наряду с героями, пребывает и сам постановщик.
За редким исключением, он выказывал в 80-е годы свою творческую несостоятельность, сбиваясь на кинематографическое воспроизведение душевного бреда, сенсационное обыгрывание неуместных, художественно неоправданных интимных подробностей (эта лента «прославилась» благодаря сцене орального секса, которой даже может не быть по цензурным соображениям в ряде версий) или вообще впадая в болезненную мистику. Имеющийся намёк на это в прологе «Дьявола во плоти» был развёрнут полнее в следующем фильме Марко Беллоккьо «Видение шабаша».
-

MediaInfo

General
Format : AVI
Format/Info : Audio Video Interleave
Format profile : OpenDML
File size : 2.06 GiB
Duration : 1h 54mn
Overall bit rate : 2 566 Kbps
Writing application : VirtualDubModRus 1.5.10.2 (build 2542/release)
Writing library : VirtualDubMod build 2542/release
Video
ID : 0
Format : MPEG-4 Visual
Format profile : Advanced [email protected]
Format settings, BVOP : Yes
Format settings, QPel : No
Format settings, GMC : No warppoints
Format settings, Matrix : Default (MPEG)
Codec ID : XVID
Codec ID/Hint : XviD
Duration : 1h 54mn
Bit rate : 1 966 Kbps
Width : 704 pixels
Height : 384 pixels
Display aspect ratio : 1.85:1
Frame rate : 23.976 fps
Color space : YUV
Chroma subsampling : 4:2:0
Bit depth : 8 bits
Scan type : Progressive
Compression mode : Lossy
Bits/(Pixel*Frame) : 0.303
Stream size : 1.58 GiB (77%)
Writing library : XviD 1.2.1 (UTC 2008-12-04)
Audio #1
ID : 1
Format : AC-3
Format/Info : Audio Coding 3
Mode extension : CM (complete main)
Format settings, Endianness : Big
Codec ID : 2000
Duration : 1h 54mn
Bit rate mode : Constant
Bit rate : 192 Kbps
Channel(s) : 2 channels
Channel positions : Front: L R
Sampling rate : 48.0 KHz
Bit depth : 16 bits
Compression mode : Lossy
Stream size : 158 MiB (7%)
Alignment : Split accross interleaves
Interleave, duration : 42 ms (1.00 video frame)
Interleave, preload duration : 500 ms
Audio #2
ID : 2
Format : AC-3
Format/Info : Audio Coding 3
Mode extension : CM (complete main)
Format settings, Endianness : Big
Codec ID : 2000
Duration : 1h 54mn
Bit rate mode : Constant
Bit rate : 192 Kbps
Channel(s) : 2 channels
Channel positions : Front: L R
Sampling rate : 48.0 KHz
Bit depth : 16 bits
Compression mode : Lossy
Stream size : 158 MiB (7%)
Alignment : Split accross interleaves
Interleave, duration : 42 ms (1.00 video frame)
Interleave, preload duration : 500 ms
Audio #3
ID : 3
Format : AC-3
Format/Info : Audio Coding 3
Mode extension : CM (complete main)
Format settings, Endianness : Big
Codec ID : 2000
Duration : 1h 54mn
Bit rate mode : Constant
Bit rate : 192 Kbps
Channel(s) : 2 channels
Channel positions : Front: L R
Sampling rate : 48.0 KHz
Bit depth : 16 bits
Compression mode : Lossy
Stream size : 158 MiB (7%)
Alignment : Split accross interleaves
Interleave, duration : 42 ms (1.00 video frame)
Interleave, preload duration : 500 ms
-

Скриншоты



- - -


Последний раз редактировалось: kat222000 (2015-03-20 21:50), всего редактировалось 1 раз

Создавать темы 20-Мар-2015 21:33

[Профиль]  [ЛС] 

kat222000 ®

Стаж: 6 лет 4 месяца

Сообщений: 608

Симпатии: 1055

Каждые 2-3 дня новые релизы...Оставайтесь с Нами...И поверьте, впереди Вас ждёт много интересного...
Если будут желающие, можно организовать фильмографию Вернера Херцога и некоторые фильмы Франсуа Озона, которых нет на трекере - пишите в ЛС..

Создавать темы 20-Мар-2015 21:55

[Профиль]  [ЛС] 

vlacom

Стаж: 4 года 1 месяц

Сообщений: 44

Симпатии: 21

Прекрасно, спасибо за релиз

Создавать темы 21-Мар-2015 08:06

[Профиль]  [ЛС] 
Показать сообщения:    
Ответить на тему

Текущее время: 24-Авг 13:46

Часовой пояс: UTC + 5



Вы не можете начинать темы
Вы не можете отвечать на сообщения
Вы не можете редактировать свои сообщения
Вы не можете удалять свои сообщения
Вы не можете голосовать в опросах
Вы не можете прикреплять файлы к сообщениям
Вы не можете скачивать файлы