Астерикс: Земля Богов / Astérix: Le domaine des dieux ( Луис Клиши, Александр Астье) [2014 г., Франция, мультфильм, приключения, фэнтези, комедия, HDRip][лицензия]

Ответить на тему
 

Guliver ®

Стаж: 2 года 6 месяцев

Сообщений: 9

Симпатии: 3

--Астерикс: Земля Богов / Astérix: Le domaine des dieux-

Год: 2014
Страна: Франция-Жанр: мультфильм, приключения, фэнтези, комедия-Режиссер: Луис Клиши, Александр Астье-Продолжительность: 01:25:34
Перевод: Профессиональный (полный дубляж) [лицензия]-В главных ролях:
Роже Карель, Лоран Дойч, Лоран Лафитт, Александр Астье, Ален Шаба, Эли Семун, Жеральдин Накаш, Артюс де Пенгерн, Лионель Астье, Франсуа Морель-Роли дублировали::
Вадим Галыгин, Даниил Эльдаров, Дмитрий Полонский, Денис Беспалый, Денис Строев-Описание:
Астерикс и его лучший друг Обеликс продолжают свою многолетнюю борьбу с Цезарем, который хочет наконец-то расправиться с неукротимыми галлами. Вокруг деревни Астерикса Цезарь приказывает построить новый Рим — Землю Богов. В галльской деревне хаос и смятение. Но Астерикс и Обеликс не сдаются!-Рейтинг (КиноПоиск): 6.693-Качество: HDRip
Формат: MKV
Видео кодек: MPEG4 / AVC
Аудио кодек: AC-3
Видео: AVC: 1024 x 576, 3185 Kbps, 23.976 fps / (16:9)
Аудио : AC-3: 6 channels, 448 Kbps, 48.0 KHz-

Скриншоты



-

MI

General
Unique ID : 168348648403719580577546155723716462494 (0x7EA6C532C2870C1E037BA147C20E879E)
Format : Matroska
Format version : Version 2
File size : 2.22 GiB
Duration : 1h 25mn
Overall bit rate : 3 706 Kbps
Writing application : Lavf51.12.1
Writing library : Lavf51.12.1
Video
ID : 1
Format : AVC
Format/Info : Advanced Video Codec
Format profile : [email protected]
Format settings, CABAC : No
Format settings, ReFrames : 1 frame
Codec ID : V_MPEG4/ISO/AVC
Duration : 1h 25mn
Bit rate : 3 185 Kbps
Width : 1 024 pixels
Height : 576 pixels
Display aspect ratio : 16:9
Frame rate mode : Constant
Frame rate : 23.976 fps
Color space : YUV
Chroma subsampling : 4:2:0
Bit depth : 8 bits
Scan type : Progressive
Bits/(Pixel*Frame) : 0.225
Stream size : 1.90 GiB (86%)
Language : English
Default : Yes
Forced : No
Audio
ID : 2
Format : AC-3
Format/Info : Audio Coding 3
Mode extension : CM (complete main)
Format settings, Endianness : Big
Codec ID : A_AC3
Duration : 1h 25mn
Bit rate mode : Constant
Bit rate : 448 Kbps
Channel(s) : 6 channels
Channel positions : Front: L C R, Side: L R, LFE
Sampling rate : 48.0 KHz
Bit depth : 16 bits
Compression mode : Lossy
Stream size : 274 MiB (12%)
Language : Russian
Default : Yes
Forced : No

Создавать темы 21-Мар-2015 05:37

[Профиль]  [ЛС] 
Показать сообщения:    
Ответить на тему

Текущее время: 18-Окт 05:19

Часовой пояс: UTC + 5



Вы не можете начинать темы
Вы не можете отвечать на сообщения
Вы не можете редактировать свои сообщения
Вы не можете удалять свои сообщения
Вы не можете голосовать в опросах
Вы не можете прикреплять файлы к сообщениям
Вы не можете скачивать файлы