Все то, о чем мы так долго мечтали (Рудольф Фрунтов) [1997, боевик, криминальная драма, приключения, DVDRip]

Ответить на тему
 

Baxa2009 ®

Стаж: 5 лет 7 месяцев

Сообщений: 42

Симпатии: 15

Все то, о чем мы так долго мечтали Жанр: боевик, криминальная драма, приключения
Год выпуска: 1997
Продолжительность: 1:37:07--Режиссёр: Рудольф Фрунтов--В ролях: Николай Добрынин, Анна Терехова, Александр Песков, Всеволод Шиловский, Нина Агапова, Георгий Корольчук--Описание: Чтобы заработать денег, Коля перегоняет для своего сослуживца "Мерседес" из Германии. По пути в Россию герой заезжает в бордель, и там встречает русскую проститутку Наташу. Попав в полицию, где выясняется, что в его машине запрятан героин, Коля смекает, что ему возвращаться на родину не стоит. Наташа ладно организовывает побег и герои мирно живут в Германии до тех пор, пока на них не наезжает международная мафия...

Доп. информация: «Для съемок этого криминального боевика авторы, кажется, собрали все сюжетные штампы российского кино 90-х годов. Армейская дедовщина. Наивный парень, ставший жертвой мафии. Искушение заграничной ночной жизнью. Благородная проститутка. Кулачные бои. Жестокие тюремные нравы и т.д. и т.п. Ирония названия фильма, по-видимому, состоит в том, что именно такие сюжеты мечтали увидеть многие наши зрители еще лет 15 назад. Но... сейчас на исходе 90-е. Сотни американских и отечественных фильмов уже успели обрушить на нас бесконечный поток мафиозно-бандистких историй. "Эстетика братвы" успешно закрепилась в развлекательном телеэфире. И фильм Р.Фрунтова напоминает мне медведя, вышедшего на прогулку после долгой зимней спячки в берлоге. Глядь, а вместо родного леса - сверкающий огнями парк аттракционов...» Александр Федоров
Приз информационного спонсора НТВ режиссеру (Р.Фрунтов), приз зрительских симпатий актерам (Н.Добрынин, А.Терехова) ФРК «Окно в Европу—97» (Выборг); Приз «Вера, Надежда, Любовь» КФ «Листопад—97» (Минск).
-Качество видео: DVDRip
Формат видео: AVI
Видео: 640x480, 25 fps, XviD build 47 ~871 kbps avg, 0.11 bit/pixel
Аудио: MP3 48000Hz stereo 128kbps [A: mp3, 48000 Hz, stereo, 128 kb/s]-

MediaInfo

General
Format : AVI
Format/Info : Audio Video Interleave
File size : 699 MiB
Duration : 1h 37mn
Overall bit rate : 1 006 Kbps
Writing application : VirtualDubMod 1.5.4.1 (build 2178/release)
Writing library : VirtualDubMod build 2178/release
Video
ID : 0
Format : MPEG-4 Visual
Format profile : Advanced [email protected]
Format settings, BVOP : Yes
Format settings, QPel : No
Format settings, GMC : No warppoints
Format settings, Matrix : Custom
Codec ID : XVID
Codec ID/Hint : XviD
Duration : 1h 37mn
Bit rate : 871 Kbps
Width : 640 pixels
Height : 480 pixels
Display aspect ratio : 4:3
Frame rate : 25.000 fps
Color space : YUV
Chroma subsampling : 4:2:0
Bit depth : 8 bits
Scan type : Progressive
Compression mode : Lossy
Bits/(Pixel*Frame) : 0.113
Stream size : 605 MiB (87%)
Writing library : XviD 1.2.0.dev47 (UTC 2006-11-01)
Audio
ID : 1
Format : MPEG Audio
Format version : Version 1
Format profile : Layer 3
Mode : Joint stereo
Mode extension : MS Stereo
Codec ID : 55
Codec ID/Hint : MP3
Duration : 1h 37mn
Bit rate mode : Constant
Bit rate : 128 Kbps
Channel(s) : 2 channels
Sampling rate : 48.0 KHz
Compression mode : Lossy
Stream size : 88.9 MiB (13%)
Alignment : Aligned on interleaves
Interleave, duration : 80 ms (2.00 video frames)
Interleave, preload duration : 504 ms
Writing library : LAME3.97
Encoding settings : -m j -V 4 -q 2 -lowpass 17 -b 128
Language : English
--

Скриншоты








Создавать темы 21-Мар-2015 12:29

[Профиль]  [ЛС] 
Показать сообщения:    
Ответить на тему

Текущее время: 21-Ноя 09:26

Часовой пояс: UTC + 5



Вы не можете начинать темы
Вы не можете отвечать на сообщения
Вы не можете редактировать свои сообщения
Вы не можете удалять свои сообщения
Вы не можете голосовать в опросах
Вы не можете прикреплять файлы к сообщениям
Вы не можете скачивать файлы