Посредники / Middle Men (Джордж Галло) [2009, США, драма, комедия, криминал, HDRip] (DVO : [НТВ+])

Ответить на тему
 

Uzer5 ®

Стаж: 6 лет

Сообщений: 76

Симпатии: 13

Посредники / Middle Men
Страна: США
Жанр: драма, комедия, криминал
Год выпуска: 2009
Продолжительность: 01:52:07
Перевод: Профессиональный (двухголосый закадровый) Доп. инфо о переводе [НТВ+]
Cубтитры: нет
Режиссер: Джордж Галло
В ролях: Люк Уилсон, Джованни Рибизи, Гэбриел Махт, Джеймс Каан, Джасинда Бэррет, Кевин Поллак, Лаура Рэмси, Раде Шербеджия, Терри Крюс, Келси Грэммер
Описание: Уже став партнёром в перспективной интернет-компании, хороший муж и отец двух детей Джек Харрис узнал, что его новым делом станет менеджмент в области развлечений для взрослых. Его привычным окружением быстро становятся старлетки, аферисты, русская мафия, федеральные агенты и международные террористы. Но только своим жизненным приоритетам — браку и семье — Джек изо всех сил пытается не изменять.
Доп. информация: Фильм снят на основе реальных событий
Качество видео: HDRip
Формат видео: AVI
Видео: MPEG-4 Visual at 1667 Кбит/сек;720 x 304 (2.368) at 23.976 fps
Аудио: AC-3 at 192 Кбит/сек; 2 канала, 48,0 КГц

MediaInfo

Format : AVI
Format/Info : Audio Video Interleave
File size : 1.46 GiB
Duration : 1h 52mn
Overall bit rate : 1 868 Kbps
Writing application : VirtualDubMod 1.5.10.2 (build 2540/release)
Writing library : VirtualDubMod build 2540/release
Video
ID : 0
Format : MPEG-4 Visual
Format profile : Advanced [email protected]
Format settings, BVOP : Yes
Format settings, QPel : No
Format settings, GMC : No warppoints
Format settings, Matrix : Default (MPEG)
Codec ID : XVID
Codec ID/Hint : XviD
Duration : 1h 52mn
Bit rate : 1 667 Kbps
Width : 720 pixels
Height : 304 pixels
Display aspect ratio : 2.35:1
Frame rate : 23.976 fps
Color space : YUV
Chroma subsampling : 4:2:0
Bit depth : 8 bits
Scan type : Progressive
Compression mode : Lossy
Bits/(Pixel*Frame) : 0.318
Stream size : 1.31 GiB (89%)
Writing library : XviD 1.2.1 (UTC 2008-12-04)
Audio
ID : 1
Format : AC-3
Format/Info : Audio Coding 3
Format profile : Dolby Digital
Mode extension : CM (complete main)
Format settings, Endianness : Big
Codec ID : 2000
Duration : 1h 52mn
Bit rate mode : Constant
Bit rate : 192 Kbps
Channel(s) : 2 channels
Channel positions : Front: L R
Sampling rate : 48.0 KHz
Bit depth : 16 bits
Compression mode : Lossy
Stream size : 154 MiB (10%)
Alignment : Split accross interleaves
Interleave, duration : 42 ms (1.00 video frame)
Interleave, preload duration : 500 ms

Скриншот c названием фильма

Скриншоты


_________________
Подпись отключена за нарушение правил форума

Создавать темы 21-Мар-2015 15:35

[Профиль]  [ЛС] 
Показать сообщения:    
Ответить на тему

Текущее время: 17-Авг 02:46

Часовой пояс: UTC + 5



Вы не можете начинать темы
Вы не можете отвечать на сообщения
Вы не можете редактировать свои сообщения
Вы не можете удалять свои сообщения
Вы не можете голосовать в опросах
Вы не можете прикреплять файлы к сообщениям
Вы не можете скачивать файлы