Грязь / Мерзость / Muck (Стив Уолш) [2015, США, Ужасы, HDRip] (VO : den904)

Ответить на тему
 

bbk ®

Стаж: 6 лет 9 месяцев

Сообщений: 435

Симпатии: 479

Грязь / Мерзость / Muck
Страна: США
Жанр: Ужасы
Год выпуска: 2015
Продолжительность: 01:38:33
Перевод: Любительский (одноголосый) den904
Cубтитры: нет
Режиссер: Стив Уолш
В ролях: Брайс Дрэйпер, Стефани Даниэльсон, Лаура Джейкобс, Грант Алан, Лорен Франческа, Жаклин Свидберг, Кэйн Ходдер, Лачлан Бьюкэнэн, Джия Скова, Лейла Найт
Описание: Группа друзей оказалась в западне, провалившись в древнее захоронение, на выходе из которого их поджидал убийца — воплощение чистого Зла. Героям предстоит выбрать — противостоять злу и сражаться, или вернуться не самой приятной дорогой обратно…
 

Качество видео: HDRip
Формат видео: AVI
Видео: XviD, 720x384, 23.976fps, ~1734Kbit/s
Аудио: AC3, 48000 Hz, 2 канала, 192kbit/s Русский
Аудио 2: AC3, 48000 Hz, 2 канала, 192kbit/s Английский

MediaInfo

General
Complete name : Muck.2015.HDRip.1500mb.avi
Format : AVI
Format/Info : Audio Video Interleave
File size : 1.47 GiB
Duration : 1h 38mn
Overall bit rate : 2 133 Kbps
Writing application : VirtualDubModRus 1.5.10.2 (build 2542/release)
Writing library : VirtualDubMod build 2542/release
Video #0
ID : 0
Format : MPEG-4 Visual
Format profile : Advanced [email protected]
Format settings, BVOP : 2
Format settings, QPel : No
Format settings, GMC : No warppoints
Format settings, Matrix : Default (H.263)
Muxing mode : Packed bitstream
Codec ID : XVID
Codec ID/Hint : XviD
Duration : 1h 38mn
Bit rate : 1 735 Kbps
Width : 720 pixels
Height : 384 pixels
Display aspect ratio : 1.85:1
Frame rate : 23.976 fps
Color space : YUV
Chroma subsampling : 4:2:0
Bit depth : 8 bits
Scan type : Progressive
Compression mode : Lossy
Bits/(Pixel*Frame) : 0.262
Stream size : 1.19 GiB (81%)
Writing library : XviD 64
Audio #1
ID : 1
Format : AC-3
Format/Info : Audio Coding 3
Mode extension : CM (complete main)
Format settings, Endianness : Big
Codec ID : 2000
Duration : 1h 38mn
Bit rate mode : Constant
Bit rate : 192 Kbps
Channel(s) : 2 channels
Channel positions : Front: L R
Sampling rate : 48.0 KHz
Bit depth : 16 bits
Compression mode : Lossy
Stream size : 135 MiB (9%)
Alignment : Split accross interleaves
Interleave, duration : 42 ms (1.00 video frame)
Interleave, preload duration : 500 ms
Audio #2
ID : 2
Format : AC-3
Format/Info : Audio Coding 3
Mode extension : CM (complete main)
Format settings, Endianness : Big
Codec ID : 2000
Duration : 1h 38mn
Bit rate mode : Constant
Bit rate : 192 Kbps
Channel(s) : 2 channels
Channel positions : Front: L R
Sampling rate : 48.0 KHz
Bit depth : 16 bits
Compression mode : Lossy
Stream size : 135 MiB (9%)
Alignment : Split accross interleaves
Interleave, duration : 42 ms (1.00 video frame)
Interleave, preload duration : 500 ms

Скриншот c названием фильма

Скриншоты

Создавать темы 22-Мар-2015 09:18

[Профиль]  [ЛС] 

-OdilmaX-

Стаж: 2 года 4 месяца

Сообщений: 425

Симпатии: 854

и скриры мерские

Создавать темы 22-Мар-2015 13:53

[Профиль]  [ЛС] 

FoxSage

Стаж: 4 года 1 месяц

Сообщений: 197

Симпатии: 19

пРИКОЛ

Создавать темы 22-Мар-2015 17:03

[Профиль]  [ЛС] 

Flatonfloor

Стаж: 4 года 5 месяцев

Сообщений: 179

Симпатии: 30

А где скрин с голой телкой?

Создавать темы 24-Мар-2015 22:38

[Профиль]  [ЛС] 

-OdilmaX-

Стаж: 2 года 4 месяца

Сообщений: 425

Симпатии: 854

927432А где скрин с голой телкой?
такие скрины не кладут !!!!

Создавать темы 24-Мар-2015 22:47

[Профиль]  [ЛС] 

SkoroXod

Стаж: 1 год 11 месяцев

Сообщений: 99

Симпатии: 78

Тупой и неинтересный фильм. К тому же через каждое слово мат-перемат. Не знаю, может и есть любители такого кино, но мне не понравилось вообще.

Создавать темы 02-Окт-2015 10:55

[Профиль]  [ЛС] 
Показать сообщения:    
Ответить на тему

Текущее время: 17-Авг 01:02

Часовой пояс: UTC + 5



Вы не можете начинать темы
Вы не можете отвечать на сообщения
Вы не можете редактировать свои сообщения
Вы не можете удалять свои сообщения
Вы не можете голосовать в опросах
Вы не можете прикреплять файлы к сообщениям
Вы не можете скачивать файлы