Не будите спящую собаку (Анатолий Бобровский) [1991, криминальная комедия, DVDRip-AVC]

Ответить на тему
 

lotto ®

Стаж: 7 лет 7 месяцев

Сообщений: 221

Симпатии: 409

Не будите спящую собаку-- Жанр: криминальная комедия
Год выпуска: 1991
Продолжительность: 02:04:30--Режиссёр: Анатолий Бобровский
В ролях: Виктор Павлов, Алексей Жарков, Владимир Этуш, Любовь Руденко, Владимир Сошальский, Эммануил Виторган, Игорь Кашинцев, Елена Попова, Елена Борзова, Геннадий Матвеев--Описание: Очутившись на свободе, рецидивист Чибис не долго ходит без «дела». Жертвой хорошо продуманной аферы становится бывший расхититель социалистической госсобственности, напахавший в свое время миллион и теперь наслаждающийся прелестями перестройки.-- --Качество видео: DVDRip-AVC
Формат видео: MKV
Видео: h.264, [email protected], 1447 kbps, 25 fps
Аудио: AC3, 48 KHz, 2 ch, 224 kbps

MediaInfo

General
Unique ID : 179936828476771032357045064384247209179 (0x875E929651088944BEBCD2681C879CDB)
Complete name : \Не будите спящую собаку.mkv
Format : Matroska
Format version : Version 2
File size : 1.45 GiB
Duration : 2h 4mn
Overall bit rate : 1 673 Kbps
Encoded date : UTC 2011-12-25 06:08:08
Writing application : mkvmerge v4.9.1 ('Ich will') built on Jul 11 2011 23:53:15
Writing library : libebml v1.2.1 + libmatroska v1.1.1
Video
ID : 1
Format : AVC
Format/Info : Advanced Video Codec
Format profile : [email protected]
Format settings, CABAC : Yes
Format settings, ReFrames : 11 frames
Codec ID : V_MPEG4/ISO/AVC
Duration : 2h 4mn
Bit rate : 1 447 Kbps
Width : 690 pixels
Height : 572 pixels
Display aspect ratio : 4:3
Frame rate mode : Constant
Frame rate : 25.000 fps
Color space : YUV
Chroma subsampling : 4:2:0
Bit depth : 8 bits
Scan type : Progressive
Bits/(Pixel*Frame) : 0.147
Stream size : 1.23 GiB (85%)
Writing library : x264 core 116 r2074 2641b9e
Encoding settings : cabac=1 / ref=11 / deblock=1:-1:-1 / analyse=0x3:0x133 / me=umh / subme=10 / psy=1 / psy_rd=1.00:0.00 / mixed_ref=1 / me_range=24 / chroma_me=1 / trellis=2 / 8x8dct=1 / cqm=0 / deadzone=21,11 / fast_pskip=1 / chroma_qp_offset=-2 / threads=3 / sliced_threads=0 / nr=0 / decimate=1 / interlaced=0 / bluray_compat=0 / constrained_intra=0 / bframes=8 / b_pyramid=0 / b_adapt=2 / b_bias=0 / direct=3 / weightb=1 / open_gop=0 / weightp=2 / keyint=250 / keyint_min=25 / scenecut=40 / intra_refresh=0 / rc_lookahead=60 / rc=2pass / mbtree=1 / bitrate=1447 / ratetol=1.0 / qcomp=0.60 / qpmin=10 / qpmax=51 / qpstep=4 / cplxblur=20.0 / qblur=0.5 / vbv_maxrate=17500 / vbv_bufsize=14000 / nal_hrd=none / ip_ratio=1.40 / aq=1:1.00
Default : Yes
Forced : No
Audio
ID : 2
Format : AC-3
Format/Info : Audio Coding 3
Mode extension : CM (complete main)
Format settings, Endianness : Big
Codec ID : A_AC3
Duration : 2h 4mn
Bit rate mode : Constant
Bit rate : 224 Kbps
Channel(s) : 2 channels
Channel positions : Front: L R
Sampling rate : 48.0 KHz
Bit depth : 16 bits
Compression mode : Lossy
Stream size : 199 MiB (13%)
Default : Yes
Forced : No

Скриншот c названием фильма

Скриншоты






Создавать темы 22-Мар-2015 09:53

[Профиль]  [ЛС] 
Показать сообщения:    
Ответить на тему

Текущее время: 20-Авг 07:22

Часовой пояс: UTC + 5



Вы не можете начинать темы
Вы не можете отвечать на сообщения
Вы не можете редактировать свои сообщения
Вы не можете удалять свои сообщения
Вы не можете голосовать в опросах
Вы не можете прикреплять файлы к сообщениям
Вы не можете скачивать файлы