Интим / Intimacy (Патрис Шеро / Patrice Chéreau) [2001, Германия, Франция, Великобритания, Испания, драма, DVDRip] (MVO) (Sub Rus + Original Eng)

Ответить на тему
 

kat222000 ®

Стаж: 6 лет 6 месяцев

Сообщений: 608

Симпатии: 1055

-Интим / Intimacy«Секс, как лекарство от одиночества»-Страна: Германия, Франция, Великобритания, Испания
Жанр: драма
Год выпуска: 2001
Продолжительность: 01:55:00
Перевод: Профессиональный (многоголосый закадровый)
Cубтитры: русские (внешние srt)
Оригинальная аудиодорожка: [английский]-Режиссер: Патрис Шеро / Patrice Chéreau-В ролях: Марк Райлэнс, Керри Фокс, Сюзанна Харкер, Алистер Глорблайз, Филипп Калварио, Тимоти Сполл, Мэриэнн Фэйтфулл, Фрайзер Эйрс, Майкл Фицджералд, Роберт Эдди-Описание: Джей покинул свою семью. Просто собрал вещи ночью и ушел от жены и детей в никуда. Снял квартиру в другой части Лондона, устроился барменом. Думал, это послужит стартом к новой жизни. Жизни, лишенной хлама старых, давящих воспоминаний, вечных заезженных проблем. Запала хватило ненадолго. Одиночество, ощущение пустоты, что переживал он до разрыва с семьей, еще больше сковывает его душу. Отдушиной кажутся редкие, но регулярные встречи по средам с хозяйкой квартиры, немолодой незнакомкой, которая приходит на несколько часов и молча занимается с ним любовью. Начальное раздражение этими визитами сменяется на привычку, и когда женщина пропускает одну из встреч, он начинает следить за ней, чтобы узнать ее имя...-Обычно психологические драмы снимают о тех, кого бросают. "Интимность" (так лучше переводить название) — редкая история о тех, кто бросает. Джей и его загадочная партнерша Клэр готовы предать свои семьи, лишь бы вырваться за пределы давящей повседневности. Клэр играет в любительском театре, и ее встречи с Джеем становятся душевной подпиткой для новых ощущений, выплескиваемых ей на сцену.
Патрис Шеро, снимающий редко, но продуктивно, известен лучшей экранизацией Дюма — исторической драмой "Королева Марго". Однако размышления о кровавом ходе истории, перемалывающем кости великих мира сего, в "Интиме" сменяются на рассказ о частной драме незаметных людей в неуловимом потоке времени. Фильм основан на рассказах британского писателя Ханифа Курейши.- -Возраст: зрителям, достигшим 18 лет-Рейтинг MPAA: лицам до 17 лет обязательно присутствие взрослого-Качество видео: DVDRip
Формат видео: AVI
Видео кодек: Xvid
Аудио кодек: AC3
Видео: Xvid, 720x304, 25fps, 1 234kbps
Аудио 1: Dolby AC3, 48000Hz, 6ch, 384kbps [русский]
Аудио 2: Dolby AC3, 48000Hz, stereo, 192kbps [английский]-

Награды

Берлинский кинофестиваль, 2001 год
*Золотой Медведь
*Серебряный Медведь за лучшую женскую роль (Керри Фокс)
*Специальный приз фестиваля Blue Angel за лучший европейский фильм- Сезар, 2002 год
*Лучший режиссер (Патрис Шеро)- Европейская киноакадемия, 2001 год
*Лучший фильм
*Лучшая операторская работа (Эрик Готье)
*Приз зрительских симпатий за лучшую мужскую роль (Марк Райлэнс)
*Приз зрительских симпатий за лучшую работу режиссера (Патрис Шеро)-
-

MediaInfo

General
Format : AVI
Format/Info : Audio Video Interleave
File size : 1.47 GiB
Duration : 1h 54mn
Overall bit rate : 1 825 Kbps
Writing application : VirtualDubMod 1.5.10.2 (build 2540/release)
Writing library : VirtualDubMod build 2540/release
Video
ID : 0
Format : MPEG-4 Visual
Format profile : Advanced [email protected]
Format settings, BVOP : Yes
Format settings, QPel : No
Format settings, GMC : No warppoints
Format settings, Matrix : Default (MPEG)
Codec ID : XVID
Codec ID/Hint : XviD
Duration : 1h 54mn
Bit rate : 1 235 Kbps
Width : 720 pixels
Height : 304 pixels
Display aspect ratio : 2.35:1
Frame rate : 25.000 fps
Color space : YUV
Chroma subsampling : 4:2:0
Bit depth : 8 bits
Scan type : Progressive
Compression mode : Lossy
Bits/(Pixel*Frame) : 0.226
Stream size : 1 016 MiB (68%)
Writing library : XviD 1.2.0.dev47 (UTC 2006-11-01)
Audio #1
ID : 1
Format : AC-3
Format/Info : Audio Coding 3
Mode extension : CM (complete main)
Format settings, Endianness : Big
Codec ID : 2000
Duration : 1h 54mn
Bit rate mode : Constant
Bit rate : 384 Kbps
Channel(s) : 6 channels
Channel positions : Front: L C R, Side: L R, LFE
Sampling rate : 48.0 KHz
Bit depth : 16 bits
Compression mode : Lossy
Stream size : 316 MiB (21%)
Alignment : Split accross interleaves
Interleave, duration : 40 ms (1.00 video frame)
Interleave, preload duration : 500 ms
Audio #2
ID : 2
Format : AC-3
Format/Info : Audio Coding 3
Mode extension : CM (complete main)
Format settings, Endianness : Big
Codec ID : 2000
Duration : 1h 54mn
Bit rate mode : Constant
Bit rate : 192 Kbps
Channel(s) : 2 channels
Channel positions : Front: L R
Sampling rate : 48.0 KHz
Bit depth : 16 bits
Compression mode : Lossy
Stream size : 158 MiB (11%)
Alignment : Split accross interleaves
Interleave, duration : 40 ms (1.00 video frame)
Interleave, preload duration : 500 ms
-

Скриншоты



- - -
-

Создавать темы 22-Мар-2015 12:18

[Профиль]  [ЛС] 

nigga22480

Стаж: 7 лет 5 месяцев

Сообщений: 211

Симпатии: 13

блин 5 сидов, и никого не видит мой торрент. дайте IP у кого скорость большой, у меня турон 30Мб/с тасикс

Создавать темы 07-Май-2017 21:15

[Профиль]  [ЛС] 
Показать сообщения:    
Ответить на тему

Текущее время: 23-Окт 15:00

Часовой пояс: UTC + 5



Вы не можете начинать темы
Вы не можете отвечать на сообщения
Вы не можете редактировать свои сообщения
Вы не можете удалять свои сообщения
Вы не можете голосовать в опросах
Вы не можете прикреплять файлы к сообщениям
Вы не можете скачивать файлы