Бог не умер / God's Not Dead (Харольд Кронк) [2014, США, Драма, BDRip] (VO) (Sub Rus)

Ответить на тему
 

Егор ®

Стаж: 4 года 9 месяцев

Сообщений: 19

Симпатии: 13

Бог не умер / God's Not Dead
Страна: США
Жанр: Драма
Год выпуска: 2014
Продолжительность: 01:52:46
Перевод: Одноголосый закадровый
Cубтитры: русские
Режиссер: Харольд Кронк
В ролях: Кевин Сорбо, Шэйн Харпер, Дэвид Э.Р. Уайт, Дин Кэйн, Майкл Тейт, Джоди Дэвис, Джефф Франкенштейн, Дункан Филлипс, Уилли Робертсон, Кори Робертсон
Описание: Извечное столкновение религии и атеизма. На сей раз полем боя для защиты своих идеалов будет служить учебная аудитория, где профессор Рэдиссон сойдется в нешуточном сражении со своим учеником, верящим в Бога всей душой.

Качество видео: DVDRip-AVC
Формат видео: MP4
Видео: MPEG4 Video (H264) 1024x576 [V: [English]]
Аудио: AAC 48000Hz stereo 1536kbps [A: [Russian]
Аудио 2: AAC 48000Hz stereo 1536kbps [A: [English]]
Формат субтитров: softsub (SSA/ASS)

MediaInfo

General
Complete name : D:\Фильмы\Закачки\God's.Not.Dead.(SD).(pk).m4v
Format : MPEG-4
Codec ID : M4V
File size : 1.95 GiB
Duration : 1h 52mn
Overall bit rate mode : Variable
Overall bit rate : 2 478 Kbps
Movie name : God's Not Dead
Performer : Harold Cronk
Director : Харольд Кронк
Actor : Уилли Робертсон / Кевин Сорбо / Шэйн Харпер / Дэвид Э.Р. Уайт / Korie Robertson / Марко Хэнлиэн / Алекс Аристидис / Лиза Арнольд / Ленор Бэнкс / Томми Блэйз
Screenplay by : Чак Конзелман / Кэри Соломон / Хантер Дэннис
Producer : Майкл Скотт / Дэвид Э.Р. Уайт / Расселл Вульф
Genre : Drama
ContentType : Short Film
Description : Извечное столкновение религии и атеизма.
Recorded date : UTC 2014-03-21 08:00:00
Encoded date : UTC 2014-09-08 21:30:20
Tagged date : UTC 2014-09-08 21:31:38
Writing application : MkvToMp4 [www.mkvtomp4.ru] version 0.222
Copyright : © 2014 Pure Flix Entertainment. All Rights Reserved.
Service name : AOL
Cover : Yes
Title/Sort : God's Not Dead
LongDescription : Извечное столкновение религии и атеизма. На сей раз полем боя для защиты своих идеалов будет служить учебная аудитория, где профессор Рэдиссон сойдется в нешуточном сражении со своим учеником, верящим в Бога всей душой.
AppleStoreAccountType : AOL
AppleStoreCountry : Unknown Country
AppleStoreCatalogID : 888432070
Vendor : Apple:vendor_id:2014-719864
ContentRating : PG
Video
ID : 1
Format : AVC
Format/Info : Advanced Video Codec
Format profile : [email protected]
Format settings, CABAC : Yes
Format settings, ReFrames : 9 frames
Codec ID : avc1
Codec ID/Info : Advanced Video Coding
Duration : 1h 52mn
Bit rate : 2 200 Kbps
Maximum bit rate : 12.8 Mbps
Width : 1 024 pixels
Height : 576 pixels
Display aspect ratio : 16:9
Frame rate mode : Variable
Frame rate : 23.976 fps
Minimum frame rate : 7.939 fps
Maximum frame rate : 24.414 fps
Color space : YUV
Chroma subsampling : 4:2:0
Bit depth : 8 bits
Scan type : Progressive
Bits/(Pixel*Frame) : 0.156
Stream size : 1.73 GiB (89%)
Writing library : x264 core 130 r2273 b3065e6
Encoding settings : cabac=1 / ref=9 / deblock=1:0:0 / analyse=0x3:0x113 / me=umh / subme=9 / psy=1 / psy_rd=1.00:0.00 / mixed_ref=1 / me_range=32 / chroma_me=1 / trellis=1 / 8x8dct=1 / cqm=0 / deadzone=21,11 / fast_pskip=1 / chroma_qp_offset=-2 / threads=12 / lookahead_threads=1 / sliced_threads=0 / nr=0 / decimate=1 / interlaced=0 / bluray_compat=0 / constrained_intra=0 / bframes=6 / b_pyramid=2 / b_adapt=2 / b_bias=0 / direct=1 / weightb=1 / open_gop=0 / weightp=2 / keyint=240 / keyint_min=24 / scenecut=40 / intra_refresh=0 / rc_lookahead=40 / rc=2pass / mbtree=1 / bitrate=2200 / ratetol=1.0 / qcomp=0.60 / qpmin=0 / qpmax=69 / qpstep=4 / cplxblur=20.0 / qblur=0.5 / ip_ratio=1.40 / aq=1:1.00
Language : English
Encoded date : UTC 2014-09-08 21:30:20
Tagged date : UTC 2014-09-08 21:30:51
Color primaries : BT.709
Transfer characteristics : BT.709
Matrix coefficients : BT.709
Color range : Limited
Audio #1
ID : 2
Format : AAC
Format/Info : Advanced Audio Codec
Format profile : LC
Codec ID : 40
Duration : 1h 52mn
Bit rate mode : Variable
Bit rate : 144 Kbps
Maximum bit rate : 222 Kbps
Channel(s) : 2 channels
Channel positions : Front: L R
Sampling rate : 48.0 KHz
Compression mode : Lossy
Stream size : 115 MiB (6%)
Language : Russian
Encoded date : UTC 2014-09-08 21:30:45
Tagged date : UTC 2014-09-08 21:30:51
Audio #2
ID : 3
Format : AAC
Format/Info : Advanced Audio Codec
Format profile : LC
Codec ID : 40
Duration : 1h 52mn
Bit rate mode : Variable
Bit rate : 129 Kbps
Maximum bit rate : 183 Kbps
Channel(s) : 2 channels
Channel positions : Front: L R
Sampling rate : 48.0 KHz
Compression mode : Lossy
Stream size : 104 MiB (5%)
Language : English
Encoded date : UTC 2014-09-08 21:30:47
Tagged date : UTC 2014-09-08 21:30:51
Text
ID : 4
Format : Timed Text
Muxing mode : sbtl
Codec ID : tx3g
Duration : 1h 48mn
Bit rate mode : Variable
Bit rate : 132 bps
Stream size : 105 KiB (0%)
Language : Russian
Encoded date : UTC 2014-09-08 21:30:51
Tagged date : UTC 2014-09-08 21:30:51
Menu
ID : 5
Codec ID : text
Duration : 1h 52mn
Encoded date : UTC 2014-09-08 21:31:31
Tagged date : UTC 2014-09-08 21:31:31
00:00:00.000 : Chapter 1
00:04:51.416 : Chapter 2
00:08:08.989 : Chapter 3
00:16:54.765 : Chapter 4
00:23:23.404 : Chapter 5
00:28:08.481 : Chapter 6
00:32:43.464 : Chapter 7
00:41:40.335 : Chapter 8
00:44:27.127 : Chapter 9
00:48:48.263 : Chapter 10
00:54:08.375 : Chapter 11
01:00:17.744 : Chapter 12
01:05:25.970 : Chapter 13
01:12:30.978 : Chapter 14
01:19:44.412 : Chapter 15
01:27:15.780 : Chapter 16
01:31:33.246 : Chapter 17
01:37:52.292 : Chapter 18
01:43:09.818 : Chapter 19
01:48:28.429 : Chapter 20
Bit rate mode : VBR

Скриншот c названием фильма

Скриншоты

Создавать темы 23-Мар-2015 01:28

[Профиль]  [ЛС] 

Егор ®

Стаж: 4 года 9 месяцев

Сообщений: 19

Симпатии: 13

Перевод не самый лучший... но привыкнуть можно, тем более есть ради чего... да и в других переводах я этот фильм не встречал... так что скачивайте... и получайте удовольствие от просмотра)))

Создавать темы 23-Мар-2015 12:18

[Профиль]  [ЛС] 

Егор ®

Стаж: 4 года 9 месяцев

Сообщений: 19

Симпатии: 13

Ну как вам фильм.... отпишитесь... интересно знать...

Создавать темы 24-Мар-2015 22:33

[Профиль]  [ЛС] 

uladelpiero10

Стаж: 4 года 5 месяцев

Сообщений: 34

Симпатии: 3

Егор,
Посмотрел фильм....
сложно что-либо комментировать... Но я точно убежден в том, что БОГ НЕ УМЕР!)

Создавать темы 05-Апр-2015 23:28

[Профиль]  [ЛС] 

Егор ®

Стаж: 4 года 9 месяцев

Сообщений: 19

Симпатии: 13

Согласен)

Создавать темы 15-Апр-2015 12:05

[Профиль]  [ЛС] 
Показать сообщения:    
Ответить на тему

Текущее время: 19-Окт 10:13

Часовой пояс: UTC + 5



Вы не можете начинать темы
Вы не можете отвечать на сообщения
Вы не можете редактировать свои сообщения
Вы не можете удалять свои сообщения
Вы не можете голосовать в опросах
Вы не можете прикреплять файлы к сообщениям
Вы не можете скачивать файлы