Военный корреспондент (Павел Игнатов) [2014, Боевик, драма, SATRip]

Ответить на тему
 

bbk ®

Стаж: 6 лет 9 месяцев

Сообщений: 435

Симпатии: 479

Военный корреспондент
Жанр: Боевик, драма
Год выпуска: 2014
Продолжительность: 01:37:34
Режиссёр: Павел Игнатов
В ролях: Вольфганг Черни, Ольга Виниченко, Али Алиев, Антон Ерёмин, Ян Цапник, Максим Щёголев
Описание: Американский репортер Мэт Маккью привык доверять только фактам. За его плечами – Афганистан, Ливия, Ирак и высочайшие телевизионные награды в области журналистики. После того как в далекой и непонятной для большинства американцев стране — Украине — произошла очередная смена власти, Мэт по заданию информационного канала отправился туда и вскоре оказался на востоке страны. Он всего лишь пытался узнать и рассказать правду об этой войне, но Вашингтон обвинил его в предательстве, Киев объявил шпионом, а украинские военные приговорили к смерти…
 
Качество видео: SATRip
Формат видео: AVI
Видео: XviD ~ 1800 Кбит/с, 720х400
Аудио: AC3, 2 ch, 192 Кбит/с

MediaInfo

General
Complete name : Военный.корреспондент.2014.SATRip.Files-x.GeneralFilm.avi
Format : AVI
Format/Info : Audio Video Interleave
Format profile : OpenDML
File size : 1.37 GiB
Duration : 1h 37mn
Overall bit rate : 2 016 Kbps
Writing application : Lavf53.19.0
Video #0
ID : 0
Format : MPEG-4 Visual
Format profile : Advanced [email protected]
Format settings, BVOP : 1
Format settings, QPel : No
Format settings, GMC : No warppoints
Format settings, Matrix : Custom
Codec ID : XVID
Codec ID/Hint : XviD
Duration : 1h 37mn
Bit rate : 1 812 Kbps
Width : 720 pixels
Height : 400 pixels
Display aspect ratio : 16:9
Frame rate : 25.000 fps
Color space : YUV
Chroma subsampling : 4:2:0
Bit depth : 8 bits
Scan type : Progressive
Compression mode : Lossy
Bits/(Pixel*Frame) : 0.252
Stream size : 1.23 GiB (90%)
Writing library : XviD 73
Audio #1
ID : 1
Format : AC-3
Format/Info : Audio Coding 3
Mode extension : CM (complete main)
Format settings, Endianness : Big
Codec ID : 2000
Duration : 1h 37mn
Bit rate mode : Constant
Bit rate : 192 Kbps
Channel(s) : 2 channels
Channel positions : Front: L R
Sampling rate : 48.0 KHz
Bit depth : 16 bits
Compression mode : Lossy
Stream size : 134 MiB (10%)
Alignment : Aligned on interleaves
Interleave, duration : 32 ms (0.80 video frame)

Скриншот c названием фильма

Скриншоты

Создавать темы 23-Мар-2015 03:36

[Профиль]  [ЛС] 

Топик был перенесен из форума Российское кино в форум Фильмы за 2014
bbk

Создавать темы 23-Мар-2015 03:37

 

Kondor_1995

Стаж: 5 лет 1 месяц

Сообщений: 65

Симпатии: 4

Воо спасибо большое bbk, 4 мес как хочу посмотреть этот фильм

Создавать темы 25-Мар-2015 23:26

[Профиль]  [ЛС] 
Показать сообщения:    
Ответить на тему

Текущее время: 17-Авг 11:10

Часовой пояс: UTC + 5



Вы не можете начинать темы
Вы не можете отвечать на сообщения
Вы не можете редактировать свои сообщения
Вы не можете удалять свои сообщения
Вы не можете голосовать в опросах
Вы не можете прикреплять файлы к сообщениям
Вы не можете скачивать файлы