Хранители / Watchmen (Зак Снайдер) [2009, США, фантастика, триллер, драма, детектив, BDRip 720p] [Режиссерская версия / Director's cut] Dub + Original + Sub (Rus, Eng)

Ответить на тему
 

lotto ®

Стаж: 7 лет 7 месяцев

Сообщений: 221

Симпатии: 409

Хранители / Watchmen
Режиссерская версия / Director's cut

«Правосудие настигнет каждого из нас. Не важно за что»
-- Страна: США
Жанр: фантастика, триллер, драма, детектив
Год выпуска: 2009
Продолжительность: 03:06:29
Перевод: Профессиональный (дублированный)
Cубтитры: русские, английские
Оригинальная аудиодорожка: английский--Режиссер: Зак Снайдер
В ролях: Малин Акерман, Билли Крудап, Мэттью Гуд, Джеки Эрл Хейли, Джеффри Дин Морган, Патрик Уилсон, Карла Гуджино, Мэтт Фрюэр, Стивен МакХэтти, Лаура Меннелл, Роб ЛаБелль, Гэри Хьюстон, Джерард Батлер--Описание: Действие картины разворачивается в параллельной реальности, в Америке 1985 года. В этом мире супергерои стали частью повседневной жизни общества, а Часы Судного Дня, застыв в пяти минутах от полуночи, отсчитывают время до столкновения ведущих мировых держав. После убийства одного из своих прежних коллег Роршах — супергерой, никогда не снимающий маски, — полон решимости свершить суд Линча.
Он начинает расследование заговора, призванного уничтожить или дискредитировать всех супергероев прошлого и настоящего. Он собирает своих соратников — отставной легион борцов с преступностью, но лишь один из них обладает подлинной силой. Постепенно Роршах осознает пугающий масштаб заговора, связанного с общим прошлым героев и сулящего катастрофические последствия в будущем. Они хранят наш покой, но кто охранит нас от Хранителей?-- --Качество видео: BDRip
Формат видео: MKV
Видео: h.264, 1280x536, 4598 kbps, 23.976 fps
Аудио: AC3, 48 KHz, 6 ch, 448 kbps (русский, дублированный)
Аудио 2: AC3, 48 KHz, 6 ch, 448 kbps (английский)
Формат субтитров: softsub (SRT)

MediaInfo

General
Unique ID : 189509279139915309838417757667019093958 (0x8E9228D7D76DDB0A8AE2CEB4545677C6)
Complete name : \Watchmen.2009.Director's.Cut.UK.BDRip720p.mkv
Format : Matroska
Format version : Version 2
File size : 7.15 GiB
Duration : 3h 6mn
Overall bit rate : 5 492 Kbps
Movie name : Watchmen
Encoded date : UTC 2015-03-23 06:23:02
Writing application : mkvmerge v7.6.0 ('Garden of Dreams') 32bit built on Feb 11 2015 00:18:47
Writing library : libebml v1.3.1 + libmatroska v1.4.2
Attachements : cover.jpg
ARTIST : Патрик Уилсон, Мэттью Гуд, Джеки Эрл Хейли, Малин Акерман, Билли Крудап, Джеффри Дин Морган, Карла Гуджино и др.
DIRECTOR : Зак Снайдер
DATE_RELEASED : 2009
SUMMARY : for tas-ix.net
GENRE : фантастика, боевик, детектив
DESCRIPTION : Фильм снят по мотивам комикса Алана Мура «Хранители»
SYNOPSIS : Действие картины разворачивается в параллельной реальности, в Америке 1985 года. В этом мире супергерои стали частью повседневной жизни общества, а Часы Судного Дня, застыв в пяти минутах от полуночи, отсчитывают время до столкновения ведущих мировых держав. После убийства одного из своих прежних коллег Роршах — супергерой, никогда не снимающий маски, — полон решимости свершить суд Линча. / / Он начинает расследование заговора, призванного уничтожить или дискредитировать всех супергероев прошлого и настоящего. Он собирает своих соратников — отставной легион борцов с преступностью, но лишь один из них обладает подлинной силой. Постепенно Роршах осознает пугающий масштаб заговора, связанного с общим прошлым героев и сулящего катастрофические последствия в будущем. Они хранят наш покой, но кто охранит нас от Хранителей?
Video
ID : 1
Format : AVC
Format/Info : Advanced Video Codec
Format profile : [email protected]
Format settings, CABAC : Yes
Format settings, ReFrames : 12 frames
Codec ID : V_MPEG4/ISO/AVC
Duration : 3h 6mn
Bit rate : 4 598 Kbps
Width : 1 280 pixels
Height : 536 pixels
Display aspect ratio : 2.40:1
Frame rate mode : Constant
Frame rate : 23.976 fps
Color space : YUV
Chroma subsampling : 4:2:0
Bit depth : 8 bits
Scan type : Progressive
Bits/(Pixel*Frame) : 0.280
Stream size : 5.84 GiB (82%)
Writing library : x264 core 119 r2106 07efeb4
Encoding settings : cabac=1 / ref=12 / deblock=1:-2:-1 / analyse=0x3:0x113 / me=umh / subme=10 / psy=1 / psy_rd=1.05:0.10 / mixed_ref=1 / me_range=32 / chroma_me=1 / trellis=2 / 8x8dct=1 / cqm=0 / deadzone=21,11 / fast_pskip=0 / chroma_qp_offset=-3 / threads=6 / sliced_threads=0 / nr=0 / decimate=0 / interlaced=0 / bluray_compat=0 / constrained_intra=0 / bframes=10 / b_pyramid=2 / b_adapt=2 / b_bias=0 / direct=3 / weightb=1 / open_gop=0 / weightp=2 / keyint=240 / keyint_min=24 / scenecut=40 / intra_refresh=0 / rc=2pass / mbtree=0 / bitrate=4598 / ratetol=1.0 / qcomp=0.70 / qpmin=0 / qpmax=69 / qpstep=4 / cplxblur=20.0 / qblur=0.5 / ip_ratio=1.40 / pb_ratio=1.30 / aq=1:0.90
Language : English
Default : No
Forced : No
Audio #1
ID : 2
Format : AC-3
Format/Info : Audio Coding 3
Mode extension : CM (complete main)
Format settings, Endianness : Big
Codec ID : A_AC3
Duration : 3h 6mn
Bit rate mode : Constant
Bit rate : 448 Kbps
Channel(s) : 6 channels
Channel positions : Front: L C R, Side: L R, LFE
Sampling rate : 48.0 KHz
Bit depth : 16 bits
Compression mode : Lossy
Stream size : 598 MiB (8%)
Title : Дубляж
Language : Russian
Default : Yes
Forced : No
Audio #2
ID : 3
Format : AC-3
Format/Info : Audio Coding 3
Mode extension : CM (complete main)
Format settings, Endianness : Big
Codec ID : A_AC3
Duration : 3h 6mn
Bit rate mode : Constant
Bit rate : 448 Kbps
Channel(s) : 6 channels
Channel positions : Front: L C R, Side: L R, LFE
Sampling rate : 48.0 KHz
Bit depth : 16 bits
Compression mode : Lossy
Stream size : 598 MiB (8%)
Title : Оригинал
Language : English
Default : No
Forced : No
Text #1
ID : 4
Format : UTF-8
Codec ID : S_TEXT/UTF8
Codec ID/Info : UTF-8 Plain Text
Title : full
Language : Russian
Default : Yes
Forced : No
Text #2
ID : 5
Format : UTF-8
Codec ID : S_TEXT/UTF8
Codec ID/Info : UTF-8 Plain Text
Title : full
Language : English
Default : No
Forced : No

Скриншоты

Создавать темы 23-Мар-2015 12:40

[Профиль]  [ЛС] 
Показать сообщения:    
Ответить на тему

Текущее время: 17-Авг 11:02

Часовой пояс: UTC + 5



Вы не можете начинать темы
Вы не можете отвечать на сообщения
Вы не можете редактировать свои сообщения
Вы не можете удалять свои сообщения
Вы не можете голосовать в опросах
Вы не можете прикреплять файлы к сообщениям
Вы не можете скачивать файлы