Джемма Бовери / Gemma Bovery (Анн Фонтен) [2014, Франция, драма, мелодрама, HDRip] (VO : Lord32x)

Ответить на тему
 

bbk ®

Стаж: 6 лет 9 месяцев

Сообщений: 435

Симпатии: 479

Джемма Бовери / Gemma Bovery
Страна: Франция
Жанр: драма, мелодрама
Год выпуска: 2014
Продолжительность: 01:39:00
Перевод: Одноголосый закадровый (Lord32x)
Cубтитры: нет
Режиссер: Анн Фонтен
В ролях: Фабрис Лукини, Джемма Артертон, Джейсон Флеминг, Изабель Канделье, Нильс Шнайдер, Мел Райдо, Эльза Зильберштейн, Пип Торренс, Кейси Моттет Кляйн, Эдит Скоб
Описание: Бывший парижский хипстер Мартин становится пекарем в деревне. Все, что осталось от его юношеских амбиций — это живое воображение и страсть к литературе. Однажды, на небольшой ферме по соседству, поселяется английская пара, Джемма и Чарльз Бовери. Их имена и поведение очень напоминают Мартину персонажей из его любимых книг, что приводит его в восторг. Но вот только Джемма не читала классику…
 
Качество видео: HDRip
Формат видео: AVI
Видео: XviD, 1724 kb/s, 720x304
Аудио: AC3, 384 kb/s (6 ch)

MediaInfo

General
Complete name : Gemma.Bovery.2014.L1.HDRip.avi
Format : AVI
Format/Info : Audio Video Interleave
File size : 1.46 GiB
Duration : 1h 39mn
Overall bit rate : 2 118 Kbps
Writing application : VirtualDubMod 1.5.10.3 | www.virtualdub-fr.org || (build 2550/release)
Writing library : VirtualDubMod build 2550/release
Video #0
ID : 0
Format : MPEG-4 Visual
Format profile : Advanced [email protected]
Format settings, BVOP : 1
Format settings, QPel : No
Format settings, GMC : No warppoints
Format settings, Matrix : Default (H.263)
Codec ID : XVID
Codec ID/Hint : XviD
Duration : 1h 39mn
Bit rate : 1 724 Kbps
Width : 720 pixels
Height : 304 pixels
Display aspect ratio : 2.35:1
Frame rate : 24.000 fps
Color space : YUV
Chroma subsampling : 4:2:0
Bit depth : 8 bits
Scan type : Progressive
Compression mode : Lossy
Bits/(Pixel*Frame) : 0.328
Stream size : 1.19 GiB (81%)
Writing library : XviD 1.2.1 (UTC 2008-12-04)
Audio #1
ID : 1
Format : AC-3
Format/Info : Audio Coding 3
Mode extension : CM (complete main)
Format settings, Endianness : Big
Codec ID : 2000
Duration : 1h 38mn
Bit rate mode : Constant
Bit rate : 384 Kbps
Channel(s) : 6 channels
Channel positions : Front: L C R, Side: L R, LFE
Sampling rate : 48.0 KHz
Bit depth : 16 bits
Compression mode : Lossy
Delay relative to video : 6ms
Stream size : 272 MiB (18%)
Alignment : Split accross interleaves
Interleave, duration : 42 ms (1.00 video frame)
Interleave, preload duration : 500 ms

Скриншот c названием фильма

Скриншоты

Создавать темы 23-Мар-2015 15:53

[Профиль]  [ЛС] 
Показать сообщения:    
Ответить на тему

Текущее время: 24-Авг 06:15

Часовой пояс: UTC + 5



Вы не можете начинать темы
Вы не можете отвечать на сообщения
Вы не можете редактировать свои сообщения
Вы не можете удалять свои сообщения
Вы не можете голосовать в опросах
Вы не можете прикреплять файлы к сообщениям
Вы не можете скачивать файлы