Это любовь / Сезон: 1 / Серии: 1-20 из 20 (Александр Богданенко) [2015, комедия, SATRip]

Ответить на тему
 

Sunnat1999 ®

Стаж: 4 года 9 месяцев

Сообщений: 756

Симпатии: 416

-Это любовьСезон-1 Серии 1-20 из 20--Год выпуска: 2015
Производство: Россия
Жанр: комедия
Продолжительность: ~ 00:24:00 серия
Субтитры: нет-Режиссёр: Александр Богданенко-В ролях: Инна Приходько, Константин Войтенко, Ольга Голдыс, Тимур Еремеев, Зоряна Марченко, Александр Ведменский, Яна Глущенко, Наталья Гнитий, Назар Заднепровский-Описание: Настя и Андрей совсем недавно решились на ответственный шаг — они съехались, налаживают совместный быт и начинают понимать, что для крепких отношений нужна не только любовь и романтика, но и терпение.. много терпения! Аня и Паша уже давно прошли этот этап — они успели обзавестись общей фамилией и маленьким ребенком, но только не собственным жильем. Счастье молодой семьи омрачает отец Ани, который так и не смог смириться с выбором дочери. С собственным выбором также не могут определиться друзья Оля и Дима, которые, проснувшись однажды в одной постели, не понимают, что их связывать — любовь или дружба?-Доп. информация:
 
-Качество: SATRip
Формат: AVI
Видео кодек: XviD
Аудио кодек: MP3
Видео: XviD, ~ 1800 Кбит/с, 720x400
Аудио: MP3, 2 ch, 128 Кбит/с

Внимание! Раздача ведётся путём добавления новых серий

Когда раздача ведётся путём добавления новых серий, при каждом добавлении создётся новый торрент. Чтобы начать докачку новой серии, пользователям необходимо сделать следующее:
(1) остановить скачивание,
(2) удалить старый торрент у себя из клиента (старые серии удалять не надо),
(3) скачать новый торрент и запустить его у себя в клиенте вместо старого, при этом указать клиенту путь в старую папку, куда и должно происходить скачивание новых серий.
Ваш клиент при этом должен произвести хеширование (проверку) старой папки (если не производит сам - помогите ему сделать это), и будет докачивать только те серии, которых у вас ещё нет. Старые серии при этом не удаляются, а продолжают раздаваться!
Eсли вы уже удалили старые серии, то предотвратить повторную закачку старых серий можно, отжав галочку в соответсвующих местах при запуске нового торрента. По возможности, желательно не удалять старые серии как можно дольше, чтобы релизёр не столько продолжал раздавать старые серии, а смог сконцентрироваться на новых.

MI

Общее
Полное имя : Jeto.ljubov.SATRip\Jeto.ljubov.01.SATRip.avi
Формат : AVI
Формат/Информация : Audio Video Interleave
Размер файла : 320 Мбайт
Продолжительность : 23 м.
Общий поток : 1938 Кбит/сек
Программа кодирования : VirtualDubMod 1.5.10.3 | www.virtualdub-fr.org || (build 2550/release)
Библиотека кодирования : VirtualDubMod build 2550/release
Видео
Идентификатор : 0
Формат : MPEG-4 Visual
Профиль формата : Advanced [email protected]
Параметр BVOP формата : 2
Параметр QPel формата : Нет
Параметр GMC формата : Без точки перехода
Параметр матрицы формата : Default (H.263)
Идентификатор кодека : XVID
Идентификатор кодека/Подсказка : XviD
Продолжительность : 23 м.
Битрейт : 1800 Кбит/сек
Ширина : 720 пикселей
Высота : 400 пикселей
Соотношение сторон : 16:9
Частота кадров : 25,000 кадров/сек
Цветовое пространство : YUV
Субдискретизация насыщенности : 4:2:0
Битовая глубина : 8 бит
Тип развёртки : Прогрессивная
Метод сжатия : С потерями
Бит/(Пиксели*Кадры) : 0.250
Размер потока : 297 Мбайт (93%)
Библиотека кодирования : XviD 1.2.1 (UTC 2008-12-04)
Аудио
Идентификатор : 1
Формат : MPEG Audio
Версия формата : Version 1
Профиль формата : Layer 3
Режим : Joint stereo
Расширение режима : MS Stereo
Идентификатор кодека : 55
Идентификатор кодека/Подсказка : MP3
Продолжительность : 23 м.
Вид битрейта : Постоянный
Битрейт : 128 Кбит/сек
Каналы : 2 канала
Частота : 48,0 КГц
Метод сжатия : С потерями
Размер потока : 21,1 Мбайт (7%)
Выравнивание : Соединение по промежуткам
Продолжительность промежутка : 40 мс. (1,00 видеокадр)
Время предзагрузки промежутка : 504 мс.
Библиотека кодирования : LAME3.99r
Настройки программы : -m j -V 4 -q 9 -lowpass 17 -b 128
Скриншоты


Последний раз редактировалось: Sunnat1999 (2015-05-13 16:12), всего редактировалось 12 раз(а)

Создавать темы 23-Мар-2015 15:58

[Профиль]  [ЛС] 

Sunnat1999 ®

Стаж: 4 года 9 месяцев

Сообщений: 756

Симпатии: 416

ДОБАВЛЕНА 2 СЕРИЯ, ПОЖАЛУЙСТА ОБНОВИТЕ ТОРРЕНТ !

Создавать темы 23-Мар-2015 17:46

[Профиль]  [ЛС] 

Sunnat1999 ®

Стаж: 4 года 9 месяцев

Сообщений: 756

Симпатии: 416

ДОБАВЛЕНЫ 3-4 СЕРИИ, ПОЖАЛУЙСТА ОБНОВИТЕ ТОРРЕНТ !

Создавать темы 24-Мар-2015 16:56

[Профиль]  [ЛС] 

Sunnat1999 ®

Стаж: 4 года 9 месяцев

Сообщений: 756

Симпатии: 416

ДОБАВЛЕНЫ 5-6 СЕРИИ, ПОЖАЛУЙСТА ОБНОВИТЕ ТОРРЕНТ !

Создавать темы 25-Мар-2015 17:27

[Профиль]  [ЛС] 

Sunnat1999 ®

Стаж: 4 года 9 месяцев

Сообщений: 756

Симпатии: 416

ДОБАВЛЕНЫ 7-8 СЕРИИ, ПОЖАЛУЙСТА ОБНОВИТЕ ТОРРЕНТ !

Создавать темы 26-Мар-2015 17:17

[Профиль]  [ЛС] 

Fury_

Стаж: 2 года 9 месяцев

Сообщений: 22

Симпатии: 14

когда?

Создавать темы 06-Апр-2015 18:59

[Профиль]  [ЛС] 

Sunnat1999 ®

Стаж: 4 года 9 месяцев

Сообщений: 756

Симпатии: 416

929379когда?
Пока неясно. Якобы СТС обещал продолжить с 4 апреля (почему в субботу..., не понятно), но продолжения не было. Может кто утку пустил.
Ждём!
Другого выхода нет.

Создавать темы 06-Апр-2015 20:04

[Профиль]  [ЛС] 

Sunnat1999 ®

Стаж: 4 года 9 месяцев

Сообщений: 756

Симпатии: 416

ДОБАВЛЕНЫ 9-10 СЕРИИ, ПОЖАЛУЙСТА ОБНОВИТЕ ТОРРЕНТ !

Создавать темы 06-Май-2015 20:11

[Профиль]  [ЛС] 

Sunnat1999 ®

Стаж: 4 года 9 месяцев

Сообщений: 756

Симпатии: 416

ДОБАВЛЕНЫ 11-15 СЕРИИ, ПОЖАЛУЙСТА ОБНОВИТЕ ТОРРЕНТ !

Создавать темы 07-Май-2015 23:24

[Профиль]  [ЛС] 

Sunnat1999 ®

Стаж: 4 года 9 месяцев

Сообщений: 756

Симпатии: 416

ДОБАВЛЕНЫ ЗАКЛЮЧИТЕЛЬНЫЕ 16-20 СЕРИИ, ПОЖАЛУЙСТА ОБНОВИТЕ ТОРРЕНТ !

Создавать темы 08-Май-2015 16:51

[Профиль]  [ЛС] 
Показать сообщения:    
Ответить на тему

Текущее время: 13-Дек 20:06

Часовой пояс: UTC + 5



Вы не можете начинать темы
Вы не можете отвечать на сообщения
Вы не можете редактировать свои сообщения
Вы не можете удалять свои сообщения
Вы не можете голосовать в опросах
Вы не можете прикреплять файлы к сообщениям
Вы не можете скачивать файлы