Дети войны / Children of War (Мритьюнджай Деврат) [2014, Индия, Драма, военный, исторический, DVDRip] (DVO : den904&DeadSno)

Ответить на тему
 

bbk ®

Стаж: 7 лет

Сообщений: 435

Симпатии: 479

Дети войны / Children of War
Страна: Индия
Жанр: Драма, военный, исторический
Год выпуска: 2014
Продолжительность: 02:39:43
Перевод: Любительский (двухголосый закадровый) (den904&DeadSno)
Cубтитры: нет
Режиссер: Мритьюнджай Деврат
В ролях: Фарук Шайх, Виктор Банерджи, Паван Малхотра, Индранеил Сенгупта, Райма Сен, Тилотама Шом, Руча Инамдар, Джой Сенгупта
Описание: 26 марта 1971 года. Начало Войны за независимость Бангладеша против Пакистана, иными словами, грядущего ада длительностью ровно 9 месяцев. Этот период является самым кровавым и жестоким за всю историю Бангладеша, изменивший и повлиявший на жизнь каждого его жителя. Ведь именно тогда, были рождены они - дети войны.
 
Качество видео: DVDRip
Формат видео: AVI
Видео: XviD, 1200 Кбит/с, 720x304
Аудио: AC3, 2 ch, 192 Кбит/с

MediaInfo

General
Complete name : Children of War.2014. DVDRip.avi
Format : AVI
Format/Info : Audio Video Interleave
File size : 1.37 GiB
Duration : 2h 38mn
Overall bit rate : 1 241 Kbps
Writing application : VirtualDubMod 1.5.10.3 | www.virtualdub-fr.org || (build 2550/release)
Writing library : VirtualDubMod build 2550/release
Video #0
ID : 0
Format : MPEG-4 Visual
Format profile : Advanced [email protected]
Format settings, BVOP : 2
Format settings, QPel : No
Format settings, GMC : No warppoints
Format settings, Matrix : Default (MPEG)
Codec ID : XVID
Codec ID/Hint : XviD
Duration : 2h 38mn
Bit rate : 1 040 Kbps
Width : 720 pixels
Height : 304 pixels
Display aspect ratio : 2.35:1
Frame rate : 23.976 fps
Color space : YUV
Chroma subsampling : 4:2:0
Bit depth : 8 bits
Scan type : Progressive
Compression mode : Lossy
Bits/(Pixel*Frame) : 0.198
Stream size : 1.15 GiB (84%)
Writing library : XviD 73
Audio #1
ID : 1
Format : AC-3
Format/Info : Audio Coding 3
Mode extension : CM (complete main)
Format settings, Endianness : Big
Codec ID : 2000
Duration : 2h 38mn
Bit rate mode : Constant
Bit rate : 192 Kbps
Channel(s) : 2 channels
Channel positions : Front: L R
Sampling rate : 48.0 KHz
Bit depth : 16 bits
Compression mode : Lossy
Stream size : 218 MiB (15%)
Alignment : Split accross interleaves
Interleave, duration : 42 ms (1.00 video frame)
Interleave, preload duration : 500 ms

Скриншот c названием фильма

Скриншоты

Создавать темы 23-Мар-2015 16:30

[Профиль]  [ЛС] 

Топик был перенесен из форума Азиатские фильмы в форум Индийское кино
Grock

Создавать темы 23-Мар-2015 16:46

 
Показать сообщения:    
Ответить на тему

Текущее время: 12-Дек 11:25

Часовой пояс: UTC + 5



Вы не можете начинать темы
Вы не можете отвечать на сообщения
Вы не можете редактировать свои сообщения
Вы не можете удалять свои сообщения
Вы не можете голосовать в опросах
Вы не можете прикреплять файлы к сообщениям
Вы не можете скачивать файлы