Займёмся любовью (Денис Евстигнеев) [2002, комедия, драма, DVDRip] (Original Rus)

Ответить на тему
 

kat222000 ®

Стаж: 6 лет 5 месяцев

Сообщений: 608

Симпатии: 1055

-Займёмся любовью-Жанр: комедия, драма
Производство: компания "Ангел-Фильм"
Год выпуска: 2002
Продолжительность: 01:20:33-Режиссёр: Денис Евстигнеев-В ролях: Кирилл Малов, Андрей Новиков, Евгений Цыганов, Ульяна Лукина, Ева Коломиец, Антонина Комиссарова, Иван Кокорин, Галина Сазонова, Галина Солодовникова, Анастасия Цветаева, Елена Чарквиани-Описание: …В семнадцать лет все говорят и думают о сексе. На самом же деле ждут любви, — той самой — первой, большой и настоящей. В семнадцать лет пишут письма по электронной почте с признанием в любви и страдают оттого, что их принимают за вирус. Влюбляются в голос незнакомки и уводят любимых девушек с их собственной свадьбы.
Бывает, что семнадцатилетним «офигительно не везет» и девушки не хотят влюбляться в них, потому что окружающим, да и самим себе они кажутся неинтересными и «несексуальными». Но первая любовь приходит к ним так же неожиданно и неизбежно, как и к их ровесникам много поколений назад.- -Возраст: зрителям, достигшим 16 лет-Награды:
* 2002г. - Приз жюри за лучший фильм на КФ "Бригантина" (Денис Евстигнеев).
* 2002г. - Приз жюри за лучшую режиссуру на КФ "Бригантина" (Денис Евстигнеев).
* 2002г. - Приз за лучший дебют на КФ "Бригантина" (Кирилл Малов).
* 2002г. - Приз зрительских симпатий на КФ "Бригантина" (Андрей Новиков).
* 2002г. - Специальный приз жюри на ОРКФ "Кинотавр" в Сочи (Денис Евстигнеев).
* 2002г. - Приз за лучшую мужскую роль второго плана на ОРКФ "Кинотавр" в Сочи (Андрей Новиков, Алексей Цыганов).
-Качество видео: DVDRip
Формат видео: AVI
Видео кодек: XviD
Аудио кодек: AC3
Видео: 704x416 (1.69:1), 25 fps, XviD MPEG-4 ~2190 kbps avg, 0.30 bit/pixel
Аудио: 48 kHz, AC3 Dolby Digital, 3/2 (L,C,R,l,r) + LFE ch, ~384.00 kbps avg-

MediaInfo

General
Format : AVI
Format/Info : Audio Video Interleave
File size : 1.45 GiB
Duration : 1h 20mn
Overall bit rate : 2 585 Kbps
Director : zim2001
Writing application : VirtualDubMod 1.5.10.2 (build 2540/release)
Copyright : rutracker.org
Video
ID : 0
Format : MPEG-4 Visual
Format profile : Advanced [email protected]
Format settings, BVOP : Yes
Format settings, QPel : No
Format settings, GMC : No warppoints
Format settings, Matrix : Custom
Codec ID : XVID
Codec ID/Hint : XviD
Duration : 1h 20mn
Bit rate : 2 191 Kbps
Width : 704 pixels
Height : 416 pixels
Display aspect ratio : 1.692
Frame rate : 25.000 fps
Color space : YUV
Chroma subsampling : 4:2:0
Bit depth : 8 bits
Scan type : Progressive
Compression mode : Lossy
Bits/(Pixel*Frame) : 0.299
Stream size : 1.23 GiB (85%)
Writing library : XviD 1.2.1 (UTC 2008-12-04)
Audio
ID : 1
Format : AC-3
Format/Info : Audio Coding 3
Codec ID : 2000
Duration : 1h 20mn
Bit rate mode : Constant
Bit rate : 384 Kbps
Channel(s) : 6 channels
Sampling rate : 48.0 KHz
Compression mode : Lossy
Stream size : 221 MiB (15%)
Alignment : Split accross interleaves
Interleave, duration : 40 ms (1.00 video frame)
Interleave, preload duration : 500 ms
-

Скриншоты





- - -
-

Создавать темы 23-Мар-2015 20:29

[Профиль]  [ЛС] 
Показать сообщения:    
Ответить на тему

Текущее время: 21-Сен 15:39

Часовой пояс: UTC + 5



Вы не можете начинать темы
Вы не можете отвечать на сообщения
Вы не можете редактировать свои сообщения
Вы не можете удалять свои сообщения
Вы не можете голосовать в опросах
Вы не можете прикреплять файлы к сообщениям
Вы не можете скачивать файлы