Мандарины / Mandariinid (Заза Урушадзе / Zaza Urushadze) [2013, Эстония, Грузия, военная драма, DVDRip] [полная озвучка] Original Rus / VO (PashaUP) + Original Rus / Est + Sub Rus

Ответить на тему
 

ScorpiuS ®

Стаж: 6 лет 11 месяцев

Сообщений: 206

Симпатии: 122

Мандарины / Mandariinid
Страна: Эстония, Грузия
Жанр: военная драма
Год выпуска: 2013
Продолжительность: 01:26:21
Перевод: оригинальный русский + любительский одноголосый (PashaUP) на эстонскую речь
Cубтитры: русские внешние .srt на эстонскую речь
Оригинальная аудиодорожка: русский, эстонский
Режиссер: Заза Урушадзе / Zaza Urushadze
В ролях: Лембит Ульфсак, Элмо Нюганен, Георгий Накашидзе, Михаил Месхи, Райво Трасс, Каха Аревадзе, Зураб Бегалишвили, Георгий Цаава и др.
Описание: Сюжет картины повествует о событиях, развернувшихся в кавказском селе эстонских переселенцев во время Абхазской войны 1992 года, когда абхазцы боролись за отделение от Грузии.
1992 год, Абхазия. Древнее эстонское село, расположенное в живописном месте между горами и морем, опустело - эстонцы вернулись на свою историческую родину. Остались только хозяин тарного цеха Иво, его сосед, владелец мандариновой плантации Маркус и местный доктор Юхан, который уже готов покинуть селение. Маркус также собирается уехать в Эстонию, но лишь после того, как будет собран урожай мандаринов.
Война доходит до села, происходит боевое столкновение между грузинами и абхазцами. После боя Иво и Маркус находят одного оставшегося в живых чеченского наёмника по имени Ахмед, который воюет на абхазской стороне. Иво забирает Ахмеда к себе домой, чтобы его вылечить.
Ночью, хороня погибших, Маркус обнаруживает, что, несмотря на тяжелое ранение, в бою выжил и один грузин - молодой парень Ника. Его тоже относят в дом Иво. Так под одной крышей оказываются бойцы противоборствующих сторон...
Доп. информация: Примерно 70% фильма герои общаются на русском языке. Места с нерусской речью озвучены PashaUP
Награды:
2013 - Приз жюри и Приз зрительских симпатий на 62-м международном кинофестивале в Мангейм-Хайдельберге (Германия)
2013 - Приз за лучшую режиссуру и Приз зрительских симпатий на 29-м международном кинофестивале в Варшаве (Польша)
2013 - Приз за лучший эстонский фильм 2013 от Ассоциации кинокритиков Эстонской республики.
2013 - Приз за лучший фильм и лучший сценарий на международном инофестивале "FAJRI" в Иране
2013 - Приз "Heave(i)n" за лучший эстонский фильм и Приз "Дон Кихот" международной ассоциации киноклубов FICC на 17-м международном кинофестивале PÖFF "Тёмные ночи" в Таллинне (Эстония)

 
Качество видео: DVDRip
Формат видео: AVI
Видео: 720x304 (2,35:1), 25 fps, XviD, 1511 Кбит/сек
Аудио: 448 Кбит/сек, 6 каналов, 16 бит, 48 КГц, AC3 - русский + VO (PashaUP) на эстонскую речь
Аудио 2: 448 Кбит/сек, 6 каналов, 16 бит, 48 КГц, AC3 - русский, эстонский
Формат субтитров: softsub (SRT)

MediaInfo

Формат : AVI
Формат/Информация : Audio Video Interleave
Размер файла : 1,40 Гбайт
Продолжительность : 1 ч. 22 м.
Общий поток : 2421 Кбит/сек
Программа кодирования : VirtualDubMod 1.5.10.2 (build 2540/release)
Библиотека кодирования : VirtualDubMod build 2540/release
Примечание : i
Видео
Идентификатор : 0
Формат : MPEG-4 Visual
Профиль формата : Advanced [email protected]
Параметр BVOP формата : 1
Параметр QPel формата : Нет
Параметр GMC формата : Без точки перехода
Параметр матрицы формата : Default (MPEG)
Идентификатор кодека : XVID
Идентификатор кодека/Подсказка : XviD
Продолжительность : 1 ч. 22 м.
Битрейт : 1511 Кбит/сек
Ширина : 720 пикселей
Высота : 304 пикселя
Соотношение сторон : 2,35:1
Частота кадров : 25,000 кадров/сек
Цветовое пространство : YUV
Субдискретизация насыщенности : 4:2:0
Битовая глубина : 8 бит
Тип развёртки : Прогрессивная
Метод сжатия : С потерями
Бит/(Пиксели*Кадры) : 0.276
Размер потока : 896 Мбайт (62%)
Библиотека кодирования : XviD 64
Аудио #1
Идентификатор : 1
Формат : AC-3
Формат/Информация : Audio Coding 3
Расширение режима : CM (complete main)
Параметр Endianness формата : Big
Идентификатор кодека : 2000
Продолжительность : 1 ч. 22 м.
Вид битрейта : Постоянный
Битрейт : 448 Кбит/сек
Каналы : 6 каналов
Расположение каналов : Front: L C R, Side: L R, LFE
Частота : 48,0 КГц
Битовая глубина : 16 бит
Метод сжатия : С потерями
Размер потока : 266 Мбайт (19%)
Выравнивание : Разделение по промежуткам
Продолжительность промежутка : 40 мс. (1,00 видеокадр)
Время предзагрузки промежутка : 500 мс.
Аудио #2
Идентификатор : 2
Формат : AC-3
Формат/Информация : Audio Coding 3
Расширение режима : CM (complete main)
Параметр Endianness формата : Big
Идентификатор кодека : 2000
Продолжительность : 1 ч. 22 м.
Вид битрейта : Постоянный
Битрейт : 448 Кбит/сек
Каналы : 6 каналов
Расположение каналов : Front: L C R, Side: L R, LFE
Частота : 48,0 КГц
Битовая глубина : 16 бит
Метод сжатия : С потерями
Размер потока : 266 Мбайт (19%)
Выравнивание : Разделение по промежуткам
Продолжительность промежутка : 40 мс. (1,00 видеокадр)
Время предзагрузки промежутка : 500 мс.

Скриншоты




Создавать темы 24-Мар-2015 12:36

[Профиль]  [ЛС] 

shoxrux09

Стаж: 4 года 9 месяцев

Сообщений: 32

Симпатии: 4

Сильный фильм. Уж точно более достоин Оскара чем "Ида" и тем более "Левиафан"

Создавать темы 26-Апр-2015 09:25

[Профиль]  [ЛС] 

pirat

Стаж: 5 лет 4 месяца

Сообщений: 216

Симпатии: 63

Один из самых лучших, по моему мнению фильм. Учитывая многое, игру, постановку, даже музыку....и так далее..

Создавать темы 03-Ноя-2015 23:58

[Профиль]  [ЛС] 

yarik

Стаж: 4 года 6 месяцев

Сообщений: 225

Симпатии: 123

Хороший фильм, жаль что русских показали такими злодеями.

Создавать темы 28-Июн-2016 18:06

[Профиль]  [ЛС] 
Показать сообщения:    
Ответить на тему

Текущее время: 24-Авг 10:03

Часовой пояс: UTC + 5



Вы не можете начинать темы
Вы не можете отвечать на сообщения
Вы не можете редактировать свои сообщения
Вы не можете удалять свои сообщения
Вы не можете голосовать в опросах
Вы не можете прикреплять файлы к сообщениям
Вы не можете скачивать файлы