Глушь / Backcountry (Адам МакДональд) [2014, Канада, ужасы, триллер, драма, WEB-DL 720p] (VO : Хихикающий доктор) (Sub Eng + Original Eng)

Ответить на тему
 

bbk ®

Стаж: 6 лет 11 месяцев

Сообщений: 435

Симпатии: 479

Глушь / Backcountry
Страна: Канада
Жанр: ужасы, триллер, драма
Год выпуска: 2014
Продолжительность: 01:31:31
Перевод: Одноголосый закадровый (Хихикающий доктор)
Cубтитры: английские
Оригинальная аудиодорожка: английский
Режиссер: Адам МакДональд
В ролях: Мисси Перегрим, Эрик Бальфур, Николас Кэмпбелл, Мелани Маллен, Джефф Руп, Эшли Нэй
Описание: Городская пара оказалась без провианта посреди дикой глуши на территории хищного черного медведя.
 
Качество видео: WEB-DL 720p
Формат видео: MKV
Видео: AVC, 3846 kb/s, 1280x532
Аудио: Russian: AC3, 192 kb/s (2 ch) / English: AC3, 384 kb/s (6 ch)

MediaInfo

Format : Matroska
Format version : Version 4 / Version 2
File size : 2.88 GiB
Duration : 1h 31mn
Overall bit rate : 4 512 Kbps
Encoded date : UTC 2015-03-23 21:45:36
Writing application : mkvmerge v6.1.0 ('Old Devil') built on Mar 4 2013 09:10:42
Writing library : libebml v1.3.0 + libmatroska v1.4.0
Video
ID : 1
Format : AVC
Format/Info : Advanced Video Codec
Format profile : [email protected]
Format settings, CABAC : No
Format settings, ReFrames : 2 frames
Codec ID : V_MPEG4/ISO/AVC
Duration : 1h 31mn
Bit rate : 3 846 Kbps
Width : 1 280 pixels
Height : 532 pixels
Display aspect ratio : 2.40:1
Frame rate : 23.976 fps
Color space : YUV
Chroma subsampling : 4:2:0
Bit depth : 8 bits
Scan type : Progressive
Bits/(Pixel*Frame) : 0.236
Stream size : 2.46 GiB (85%)
Language : English
Default : Yes
Forced : No
Color primaries : BT.709-5, BT.1361, IEC 61966-2-4, SMPTE RP177
Transfer characteristics : BT.709-5, BT.1361
Matrix coefficients : BT.709-5, BT.1361, IEC 61966-2-4 709, SMPTE RP177
Audio #1
ID : 2
Format : AC-3
Format/Info : Audio Coding 3
Mode extension : CM (complete main)
Format settings, Endianness : Big
Codec ID : A_AC3
Duration : 1h 31mn
Bit rate mode : Constant
Bit rate : 192 Kbps
Channel(s) : 2 channels
Channel positions : Front: L R
Sampling rate : 44.1 KHz
Bit depth : 16 bits
Compression mode : Lossy
Stream size : 126 MiB (4%)
Language : Russian
Default : Yes
Forced : No
Audio #2
ID : 3
Format : AC-3
Format/Info : Audio Coding 3
Mode extension : CM (complete main)
Format settings, Endianness : Big
Codec ID : A_AC3
Duration : 1h 31mn
Bit rate mode : Constant
Bit rate : 384 Kbps
Channel(s) : 6 channels
Channel positions : Front: L C R, Side: L R, LFE
Sampling rate : 48.0 KHz
Bit depth : 16 bits
Compression mode : Lossy
Stream size : 251 MiB (9%)
Language : English
Default : No
Forced : No
Text
ID : 4
Format : UTF-8
Codec ID : S_TEXT/UTF8
Codec ID/Info : UTF-8 Plain Text
Language : English
Default : No
Forced : No
Menu
00:00:00.000 : en:1
00:10:26.000 : en:2
00:26:52.000 : en:3
00:37:42.000 : en:4
00:48:56.000 : en:5
01:04:26.000 : en:6
01:14:46.000 : en:7
01:26:09.000 : en:8

Скриншот c названием фильма

Скриншоты

Создавать темы 24-Мар-2015 13:32

[Профиль]  [ЛС] 
Показать сообщения:    
Ответить на тему

Текущее время: 17-Окт 11:16

Часовой пояс: UTC + 5



Вы не можете начинать темы
Вы не можете отвечать на сообщения
Вы не можете редактировать свои сообщения
Вы не можете удалять свои сообщения
Вы не можете голосовать в опросах
Вы не можете прикреплять файлы к сообщениям
Вы не можете скачивать файлы