Дикая / Wild (Жан-Марк Валле) [2014, США, Драма, Биография, BDRip] (DVO : Savetig Studios) (Sub Rus, Eng + Original Eng)

Ответить на тему
 

bbk ®

Стаж: 6 лет 10 месяцев

Сообщений: 435

Симпатии: 479

Дикая / Wild
Страна: США
Жанр: Драма, Биография
Год выпуска: 2014
Продолжительность: 01:55:37
Перевод: Любительский (двухголосый закадровый) (Savetig Studios)
Оригинальная аудиодорожка: английский
Cубтитры: Русские, Английские (вшитые отключаемые)
Режиссер: Жан-Марк Валле
В ролях: Риз Уизерспун, Лора Дерн, Томас Садоски, Кин МакРей, Михил Хаушман, У. Эрл Браун, Габи Хоффманн, Кевин О. Ранкин, Брайан Ван Холт, Клифф Де Янг
Описание: В центре сюжета Шерил Стрэйд, раздавленная неудавшимся браком и смертью матери и потерявшая всякую надежду на счастье женщина, отправляется в пешее странствие по территории Pacific Crest Trail — маршруту по наиболее высоким участкам хребта Сьерра-Невада и Каскадных гор. Испытания, выпавшие в этом опасном одиночном путешествии на долю героини, неминуемо исцеляют ее от душевных страданий, но процесс этот будет отнюдь не безболезненным.
 
Качество видео: BDRip (исх. Wild 2014 1080p Blu-ray Remux AVC DTS-HD 5.1)
Формат видео: MKV
Видео: MEPG-4 AVC/H.264, 1633 kb/s, 1024x432, 23.976 fps
Аудио: 48 kHz, AC3 Dolby Digital, 2/0 (LR) ch, ~192 kbps (Русский) / Двуголосый
Аудио 2: 48 kHz, AC3 Dolby Digital, 3/2 (L,C,R,l,r) + LFE ch, ~448 kbps (Английский) / Оригинал

MediaInfo

[email protected]
x264 [info]: frame I:1321 Avg QP:15.56 size: 71255
x264 [info]: frame P:35542 Avg QP:18.48 size: 18731
x264 [info]: frame B:129457 Avg QP:20.81 size: 5060
Общее
Уникальный идентификатор : 232878131843673122784798440692508998470 (0xAF32B25E472E4618BD241F000EB73B46)
Полное имя : Дикая.2014.BDRip.NNM-CLUB.mkv
Формат : Matroska
Версия формата : Version 2
Размер файла : 1,84 Гбайт
Продолжительность : 1 ч. 55 м.
Общий поток : 2274 Кбит/сек
Название фильма : Дикая.2014.BDRip.NNM-CLUB
Дата кодирования : UTC 2015-03-23 17:04:53
Программа кодирования : mkvmerge v4.9.1 ('Ich will') сборка от Jul 11 2011 23:53:15
Библиотека кодирования : libebml v1.2.1 + libmatroska v1.1.1
Видео
Идентификатор : 1
Формат : AVC
Формат/Информация : Advanced Video Codec
Профиль формата : [email protected]
Параметр CABAC формата : Да
Параметр ReFrames формата : 11 кадров
Идентификатор кодека : V_MPEG4/ISO/AVC
Продолжительность : 1 ч. 55 м.
Битрейт : 1633 Кбит/сек
Ширина : 1024 пикселя
Высота : 432 пикселя
Соотношение сторон : 2,40:1
Режим частоты кадров : Постоянный
Частота кадров : 23,976 кадра/сек
Цветовое пространство : YUV
Субдискретизация насыщенности : 4:2:0
Битовая глубина : 8 бит
Тип развёртки : Прогрессивная
Бит/(Пиксели*Кадры) : 0.154
Размер потока : 1,28 Гбайт (70%)
Заголовок : nnm-club.me
Библиотека кодирования : x264 core 144 r2525 40bb568
Настройки программы : cabac=1 / ref=11 / deblock=1:-3:-3 / analyse=0x3:0x133 / me=umh / subme=10 / psy=1 / psy_rd=1.10:0.00 / mixed_ref=1 / me_range=32 / chroma_me=1 / trellis=2 / 8x8dct=1 / cqm=0 / deadzone=21,11 / fast_pskip=0 / chroma_qp_offset=-2 / threads=12 / lookahead_threads=2 / sliced_threads=0 / nr=0 / decimate=1 / interlaced=0 / bluray_compat=0 / constrained_intra=0 / bframes=9 / b_pyramid=2 / b_adapt=2 / b_bias=0 / direct=3 / weightb=1 / open_gop=1 / weightp=2 / keyint=240 / keyint_min=23 / scenecut=40 / intra_refresh=0 / rc=2pass / mbtree=0 / bitrate=1633 / ratetol=1.0 / qcomp=0.70 / qpmin=0 / qpmax=69 / qpstep=4 / cplxblur=20.0 / qblur=0.5 / ip_ratio=1.40 / pb_ratio=1.30 / aq=1:0.90
Язык : English
Default : Да
Forced : Нет
Аудио #1
Идентификатор : 2
Формат : AC-3
Формат/Информация : Audio Coding 3
Расширение режима : CM (complete main)
Параметр Endianness формата : Big
Идентификатор кодека : A_AC3
Продолжительность : 1 ч. 55 м.
Вид битрейта : Постоянный
Битрейт : 192 Кбит/сек
Каналы : 2 канала
Расположение каналов : Front: L R
Частота : 48,0 КГц
Битовая глубина : 16 бит
Метод сжатия : С потерями
Размер потока : 159 Мбайт (8%)
Заголовок : Savetig Studios
Язык : Russian
Default : Да
Forced : Нет
Аудио #2
Идентификатор : 3
Формат : AC-3
Формат/Информация : Audio Coding 3
Расширение режима : CM (complete main)
Параметр Endianness формата : Big
Идентификатор кодека : A_AC3
Продолжительность : 1 ч. 55 м.
Вид битрейта : Постоянный
Битрейт : 448 Кбит/сек
Каналы : 6 каналов
Расположение каналов : Front: L C R, Side: L R, LFE
Частота : 48,0 КГц
Битовая глубина : 16 бит
Метод сжатия : С потерями
Размер потока : 370 Мбайт (20%)
Заголовок : Original
Язык : English
Default : Нет
Forced : Нет
Текст #1
Идентификатор : 4
Формат : UTF-8
Идентификатор кодека : S_TEXT/UTF8
Идентификатор кодека/Информация : UTF-8 Plain Text
Заголовок : lumez
Язык : Russian
Default : Нет
Forced : Нет
Текст #2
Идентификатор : 5
Формат : UTF-8
Идентификатор кодека : S_TEXT/UTF8
Идентификатор кодека/Информация : UTF-8 Plain Text
Язык : English
Default : Нет
Forced : Нет
Меню
00:00:00.000 : en:00:00:00.000
00:02:57.177 : en:00:02:57.177
00:05:48.306 : en:00:05:48.306
00:09:36.910 : en:00:09:36.910
00:12:02.013 : en:00:12:02.013
00:14:56.729 : en:00:14:56.729
00:19:38.344 : en:00:19:38.344
00:22:42.319 : en:00:22:42.319
00:26:09.443 : en:00:26:09.443
00:31:03.987 : en:00:31:03.987
00:33:42.646 : en:00:33:42.646
00:35:58.990 : en:00:35:58.990
00:40:35.600 : en:00:40:35.600
00:44:04.976 : en:00:44:04.976
00:47:38.814 : en:00:47:38.814
00:51:52.026 : en:00:51:52.026
00:54:43.071 : en:00:54:43.071
00:58:57.617 : en:00:58:57.617
01:02:13.438 : en:01:02:13.438
01:04:54.182 : en:01:04:54.182
01:07:52.402 : en:01:07:52.402
01:11:53.184 : en:01:11:53.184
01:15:15.136 : en:01:15:15.136
01:18:05.723 : en:01:18:05.723
01:20:57.936 : en:01:20:57.936
01:23:13.280 : en:01:23:13.280
01:26:39.611 : en:01:26:39.611
01:29:24.401 : en:01:29:24.401
01:32:09.149 : en:01:32:09.149
01:34:41.175 : en:01:34:41.175
01:36:37.458 : en:01:36:37.458
01:38:04.587 : en:01:38:04.587
01:41:03.182 : en:01:41:03.182
01:43:11.102 : en:01:43:11.102
01:47:12.343 : en:01:47:12.343
01:50:33.001 : en:01:50:33.001

Скриншот c названием фильма

Скриншоты

Создавать темы 24-Мар-2015 13:51

[Профиль]  [ЛС] 

dwerty

Стаж: 6 лет 2 месяца

Сообщений: 39

Симпатии: 5

Дружище bbk, напиши в личку с какого ресурса ты качаешь эти киношки?

Создавать темы 25-Мар-2015 21:39

[Профиль]  [ЛС] 

Tolik4523

Стаж: 5 лет 8 месяцев

Сообщений: 271

Симпатии: 27

18+ Да вижу пару ребят на последнем скрине

Создавать темы 26-Мар-2015 13:12

[Профиль]  [ЛС] 

Топик был перенесен из форума Фильмы за 2014 в форум Арт-хаус и авторское кино
kat222000

Создавать темы 05-Фев-2016 19:27

 
Показать сообщения:    
Ответить на тему

Текущее время: 26-Сен 03:15

Часовой пояс: UTC + 5



Вы не можете начинать темы
Вы не можете отвечать на сообщения
Вы не можете редактировать свои сообщения
Вы не можете удалять свои сообщения
Вы не можете голосовать в опросах
Вы не можете прикреплять файлы к сообщениям
Вы не можете скачивать файлы