Убийцы зомби: кладбище слонов / Zombie Killers: Elephant's Graveyard (Брюс Смит) [2014, США, Триллер, драма, ужасы, HDRip] (VO : Хихикающий доктор)

Ответить на тему
 

bbk ®

Стаж: 6 лет 9 месяцев

Сообщений: 435

Симпатии: 479

Убийцы зомби: кладбище слонов / Zombie Killers: Elephant's Graveyard
Страна: США
Жанр: Триллер, драма, ужасы
Год выпуска: 2014
Продолжительность: 01:43:50
Перевод: Одноголосый закадровый (Хихикающий доктор)
Cубтитры: нет
Режиссер: Брюс Смит
В ролях: Миша Бартон, Билли Зейн, Ди Уоллес-Стоун, Фелисса Роуз, Гэбриэлль Стоун, Брайан Галлахер, Брайан Энтони Уилсон, Adam Gingsberg, Эшли Самнер, Джо Раффа
Описание: Жители небольшой деревни вынуждены отгородиться от остального мира. Ведь в результате техногенной катастрофы их окрестности буквально кишат зомби. Теперь все в руках группы молодых людей, которые готовы стоять на защите своей территории до конца. Эти отважные люди уничтожают зомби всеми возможными способами. Но силы становятся не равными. На подходе к огражденной территории тысячи кровожадных живых мертвецов. Что же привело к такой эпидемии и как остановить атаку зомби? Это предстоит выяснить убийцам жестоких тварей..
 
Качество видео: HDRip
Формат видео: AVI
Видео: XviD, 1299 Кбит/с, 720x304
Аудио: MP3, 2 ch, 192 Кбит/с

MediaInfo

General
Complete name : Zombie.Killers.Xixidok.avi
Format : AVI
Format/Info : Audio Video Interleave
File size : 1.09 GiB
Duration : 1h 43mn
Overall bit rate : 1 501 Kbps
Writing application : VirtualDubMod 1.5.10.3 (build 2550/release)
Writing library : VirtualDubMod build 2550/release
Video #0
ID : 0
Format : MPEG-4 Visual
Format profile : [email protected]
Format settings, BVOP : No
Format settings, QPel : No
Format settings, GMC : No warppoints
Format settings, Matrix : Default (H.263)
Codec ID : XVID
Codec ID/Hint : XviD
Duration : 1h 43mn
Bit rate : 1 300 Kbps
Width : 720 pixels
Height : 304 pixels
Display aspect ratio : 2.35:1
Frame rate : 23.976 fps
Color space : YUV
Chroma subsampling : 4:2:0
Bit depth : 8 bits
Scan type : Progressive
Compression mode : Lossy
Bits/(Pixel*Frame) : 0.248
Stream size : 965 MiB (87%)
Writing library : XviD 1.1.2 (UTC 2006-11-01)
Audio #1
ID : 1
Format : MPEG Audio
Format version : Version 1
Format profile : Layer 3
Codec ID : 55
Codec ID/Hint : MP3
Duration : 1h 43mn
Bit rate mode : Constant
Bit rate : 192 Kbps
Channel(s) : 2 channels
Sampling rate : 44.1 KHz
Compression mode : Lossy
Stream size : 143 MiB (13%)
Alignment : Split accross interleaves
Interleave, duration : 42 ms (1.00 video frame)
Interleave, preload duration : 500 ms

Скриншот c названием фильма

Скриншоты

Создавать темы 24-Мар-2015 14:24

[Профиль]  [ЛС] 
Показать сообщения:    
Ответить на тему

Текущее время: 21-Авг 02:03

Часовой пояс: UTC + 5



Вы не можете начинать темы
Вы не можете отвечать на сообщения
Вы не можете редактировать свои сообщения
Вы не можете удалять свои сообщения
Вы не можете голосовать в опросах
Вы не можете прикреплять файлы к сообщениям
Вы не можете скачивать файлы