Единственная дорога (Владимир Павлович) [1975, Военный, DVDRip]

Ответить на тему
 

фазилов ®

Стаж: 3 года 6 месяцев

Сообщений: 310

Симпатии: 344

Единственная дорога
Жанр: Военный
Год выпуска: 1975
Продолжительность: 01:31:18

Режиссёр: Владимир Павлович

В ролях: Анатолий Кузнецов, Владимир Высоцкий, Душан Яничеевич, Татьяна Сидоренко, Велько Мандич, Александр Аржиловский, Лев Дуров, Глеб Стриженов, Владимир Пучков, Владимир Кашпур, Д.Боянич, Светлана Данильченко, Ирина Мирошниченко, Владислав Дворжецкий

Описание: События, о которых рассказывает фильм, длились три дня с 23 по 25 апреля 1944 года в Словении.
1944 год. По дорогам Югославии движется необычная автоколонна - за рулем бензовозов сидят попавшие в плен советские солдаты. Этим коварным замыслом гитлеровцы решили обезопасить себя от нападения партизан. Но стратегический груз не будет доставлен к месту назначения...

Доп. информация: Песни исполняют Владимир Высоцкий и Татьяна Сидоренко.

Качество видео: DVDRip
Формат видео: AVI
Видео: DivX ,640x480 (1.33:1), 25 fps, DivX Codec 5.x or 6.x ~1002 kbps avg
Аудио: Mp-3, 48 kHz, MPEG Layer 3, 2 ch, ~128.00 kbps avg

MediaInfo

General
Complete name : D:\Советские фильмы\Единственная дорога_DVDRip_745mb.avi
Format : AVI
Format/Info : Audio Video Interleave
File size : 744 MiB
Duration : 1h 31mn
Overall bit rate : 1 140 Kbps
Writing application : VirtualDubModRus 1.5.10.2 (build 2542/release)
Writing library : VirtualDubMod build 2542/release
Video
ID : 0
Format : MPEG-4 Visual
Format settings, BVOP : 1
Format settings, QPel : No
Format settings, GMC : No warppoints
Format settings, Matrix : Default (H.263)
Muxing mode : Packed bitstream
Codec ID : DX50
Codec ID/Hint : DivX 5
Duration : 1h 31mn
Bit rate : 1 002 Kbps
Width : 640 pixels
Height : 480 pixels
Display aspect ratio : 4:3
Frame rate : 25.000 fps
Color space : YUV
Chroma subsampling : 4:2:0
Bit depth : 8 bits
Scan type : Progressive
Compression mode : Lossy
Bits/(Pixel*Frame) : 0.131
Stream size : 655 MiB (88%)
Writing library : DivX 6.8.3-6.8.4 (UTC 2008-06-07)
Audio
ID : 1
Format : MPEG Audio
Format version : Version 1
Format profile : Layer 3
Mode : Joint stereo
Mode extension : MS Stereo
Codec ID : 55
Codec ID/Hint : MP3
Duration : 1h 31mn
Bit rate mode : Constant
Bit rate : 128 Kbps
Channel(s) : 2 channels
Sampling rate : 48.0 KHz
Compression mode : Lossy
Stream size : 83.6 MiB (11%)
Alignment : Aligned on interleaves
Interleave, duration : 40 ms (1.00 video frame)
Interleave, preload duration : 504 ms
Writing library : LAME3.97
Encoding settings : -m j -V 4 -q 2 -b 128]

Скриншот c названием фильма

Скриншоты





Создавать темы 25-Мар-2015 12:48

[Профиль]  [ЛС] 

фазилов ®

Стаж: 3 года 6 месяцев

Сообщений: 310

Симпатии: 344

ai Нет коннекта. За 30 часов никто не смог прицепиться. Не впервые сталкиваюсь с такой проблемой. В чём дело-не знаю ai

Создавать темы 26-Мар-2015 19:06

[Профиль]  [ЛС] 
Показать сообщения:    
Ответить на тему

Текущее время: 20-Авг 13:07

Часовой пояс: UTC + 5



Вы не можете начинать темы
Вы не можете отвечать на сообщения
Вы не можете редактировать свои сообщения
Вы не можете удалять свои сообщения
Вы не можете голосовать в опросах
Вы не можете прикреплять файлы к сообщениям
Вы не можете скачивать файлы