Цимбелин \ Cymbeline (Майкл Алмерейда \ Michael Almereyda) [2014., США, Драма, WEB-DLRip]

Ответить на тему
 

DXgame ®

Стаж: 4 года 10 месяцев

Сообщений: 128

Симпатии: 144

Цимбелин / Cymbeline«Короли, королевы, байкеры, война»- Год выпуска: 2014
Страна: США
Жанр: Драма
Продолжительность: 01:38:30
Перевод: Профессиональное (многоголосое)-Режиссер: Майкл Алмерейда-В ролях: Итан Хоук, Эд Харрис, Милла Йовович, Джон Легуизамо, Пенн Бэджли, Дакота Джонсон, Антон Ельчин, Питер Герети, Кевин Корригэн, Вонди Куртис-Холл
-Описание:
Современный пересказ одноименной трагедии Уильяма Шекспира. Действие перенесено в наши дни. Цимбелин, лидер байкеров-наркоторговцев, объявляет войну местным продажным полицейским. Его дочери, Имогене и ее возлюбленному Постуму приходится самим сражаться за свою любовь.-Дополнительная информация:
  • Сценарий: Майкл Алмерейда, Уильям Шекспир
  • Продюсер: Майкл Бенаройя, Энтони Катагас, Эшли Берден
  • Оператор: Тим Орр
  • Композитор: Дэвид Людвиг
  • Художник: Хэппи Масси, Марк Бенасерраф, Катрин Райли
  • Монтаж: Джон Скотт Кук, Барбара Талливер
-
  • Премьера (мир): 3 сентября 2014
  • Премьера (РФ): 5 марта 2015, «Наше Кино»
-Качество: WEB-DLRip
Формат: AVI
Видео кодек: XviD
Аудио кодек: AC3
Видео данные: XviD,1 641 kb/s, 720x384, 23.976 fps
Аудио данные: AC3, 384 kb/s, 48.0 KHz, (2 ch)-

MediaInfo

General
Complete name                            : D:\Фильмы\Cymbeline.2014.P.WEB-DLRip [TAS-IX.NET].avi
Format                                   : AVI
Format/Info                              : Audio Video Interleave
File size                                : 1.46 GiB
Duration                                 : 1h 38mn
Overall bit rate                         : 2 117 Kbps
Writing application                      : VirtualDubMod 1.5.10.3 | www.virtualdub-fr.org || (build 2550/release)
Writing library                          : VirtualDubMod build 2550/release
Video
ID                                       : 0
Format                                   : MPEG-4 Visual
Format profile                           : Advanced [email protected]
Format settings, BVOP                    : 2
Format settings, QPel                    : No
Format settings, GMC                     : No warppoints
Format settings, Matrix                  : Default (MPEG)
Muxing mode                              : Packed bitstream
Codec ID                                 : XVID
Codec ID/Hint                            : XviD
Duration                                 : 1h 38mn
Bit rate                                 : 1 724 Kbps
Width                                    : 720 pixels
Height                                   : 384 pixels
Display aspect ratio                     : 1.85:1
Frame rate                               : 23.976 fps
Color space                              : YUV
Chroma subsampling                       : 4:2:0
Bit depth                                : 8 bits
Scan type                                : Progressive
Compression mode                         : Lossy
Bits/(Pixel*Frame)                       : 0.260
Stream size                              : 1.19 GiB (81%)
Writing library                          : XviD 73
Audio
ID                                       : 1
Format                                   : AC-3
Format/Info                              : Audio Coding 3
Mode extension                           : CM (complete main)
Format settings, Endianness              : Big
Codec ID                                 : 2000
Duration                                 : 1h 38mn
Bit rate mode                            : Constant
Bit rate                                 : 384 Kbps
Channel(s)                               : 2 channels
Channel positions                        : Front: L R
Sampling rate                            : 48.0 KHz
Bit depth                                : 16 bits
Compression mode                         : Lossy
Stream size                              : 271 MiB (18%)
Alignment                                : Split accross interleaves
Interleave, duration                     : 42 ms (1.00 video frame)
Interleave, preload duration             : 500 ms

Скриншоты



Создавать темы 25-Мар-2015 16:07

[Профиль]  [ЛС] 

pirat

Стаж: 5 лет 4 месяца

Сообщений: 216

Симпатии: 63

Охохохохох...... какие актеры, кого только тут нет.
Не особо понял с чего такой рейтинг 5 из 10, в наше время вероятно всем не угодишь.
И взгляды на кино конечно, меняются ежегодно.

ps.

ps. черезчур су mx.. требовательны.

Создавать темы 26-Мар-2015 21:30

[Профиль]  [ЛС] 
Показать сообщения:    
Ответить на тему

Текущее время: 23-Авг 19:05

Часовой пояс: UTC + 5



Вы не можете начинать темы
Вы не можете отвечать на сообщения
Вы не можете редактировать свои сообщения
Вы не можете удалять свои сообщения
Вы не можете голосовать в опросах
Вы не можете прикреплять файлы к сообщениям
Вы не можете скачивать файлы