Кибер / Blackhat (Майкл Манн / Michael Mann) [2015., боевик, триллер, драма, криминал, детектив, WEB-DLRip][Лицензия]

Ответить на тему
 

DXgame ®

Стаж: 4 года 10 месяцев

Сообщений: 128

Симпатии: 144

Кибер / Blackhat«Вы больше не можете защитить себя»- Год выпуска: 2015
Страна: США
Жанр: боевик, триллер, драма, криминал, детектив
Продолжительность: 02:12:55
Перевод: Профессиональный (дублированный) iTunes-Режиссер: Майкл Манн-В ролях: Крис Хемсворт, Ван Лихом, Тан Вэй, Виола Дэвис, Холт МакКэллани, Энди Он, Ричи Костер, Кристиан Борл, Джон Ортис, Йорик ван Вагенинген-Описание:
Спокойная, размеренная жизнь современного мирового пространства. Кажется, что ничто не может нарушить равномерный, плавный ход событий, жизнь настолько механизирована, все рассчитано до мельчайшей детали, что, казалось бы, что может произойти? Какое событие может выбить из колеи столь идеально отлаженную машину? Однако именно разработки в области новейших технологий представляют главную угрозу человечеству. Лучшие ученые умы из США и Китая объединяют силы в борьбе против самой мощной кибернетической атаки.
-Дополнительная информация:
  • Сценарий: Морган Дэвис Фёль
  • Продюсер: Джон Дж. Джашни, Майкл Манн, Томас Тулл
  • Оператор: Стюарт Драйбёрг
  • Композитор: Гарри Грегсон-Уильямс, Аттикус Росс, Лео Росс
  • Художник: Гай Диас, Люк Фриборн, Аран Манн
  • Монтаж: Мако Камицуна, Джереми О’Дрискол, Стивен Е. Ривкин
-
  • Бюджет: $70 000 000
-
  • Сборы в США: $7 889 395
  • Сборы в мире: + $9 863 545 = $17 752 940
  • Сборы в России: $830 669
-
  • Премьера (мир): 15 января 2015
  • Премьера (РФ): 29 января 2015, «UPI»
-
  • Релиз на Blu-Ray: 14 мая 2015, «Двадцатый Век Фокс СНГ»
  • Релиз на DVD: 14 мая 2015, «Двадцатый Век Фокс СНГ»
-
  • Возраст: зрителям, достигшим 16 лет
  • Рейтинг MPAA: лицам до 17 лет обязательно присутствие взрослого
-| IMDB | КиноПоиск |-Качество: WEB-DLRip
Формат: AVI
Видео кодек: XviD
Аудио кодек: AC3
Видео данные: XviD, 1118 kb/s, 720x304, 23.976 fps
Аудио данные: AC3, 384 kb/s, 48.0 KHz, (6 ch)
-

MediaInfo

General
Complete name                            : D:\Фильмы\K1ber.2015.D.WEB-DLRp.1.46GB.[TAS-IX.NET].avi
Format                                   : AVI
Format/Info                              : Audio Video Interleave
File size                                : 1.46 GiB
Duration                                 : 2h 12mn
Overall bit rate                         : 1 573 Kbps
Writing application                      : VirtualDubMod 1.5.10.3 | www.virtualdub-fr.org || (build 2550/release)
Writing library                          : VirtualDubMod build 2550/release
Video
ID                                       : 0
Format                                   : MPEG-4 Visual
Format profile                           : Advanced [email protected]
Format settings, BVOP                    : 2
Format settings, QPel                    : No
Format settings, GMC                     : No warppoints
Format settings, Matrix                  : Default (MPEG)
Codec ID                                 : XVID
Codec ID/Hint                            : XviD
Duration                                 : 2h 12mn
Bit rate                                 : 1 180 Kbps
Width                                    : 720 pixels
Height                                   : 304 pixels
Display aspect ratio                     : 2.35:1
Frame rate                               : 23.976 fps
Color space                              : YUV
Chroma subsampling                       : 4:2:0
Bit depth                                : 8 bits
Scan type                                : Progressive
Compression mode                         : Lossy
Bits/(Pixel*Frame)                       : 0.225
Stream size                              : 1.10 GiB (75%)
Writing library                          : XviD 1.2.1 (UTC 2008-12-04)
Audio
ID                                       : 1
Format                                   : AC-3
Format/Info                              : Audio Coding 3
Mode extension                           : CM (complete main)
Format settings, Endianness              : Big
Codec ID                                 : 2000
Duration                                 : 2h 12mn
Bit rate mode                            : Constant
Bit rate                                 : 384 Kbps
Channel(s)                               : 6 channels
Channel positions                        : Front: L C R, Side: L R, LFE
Sampling rate                            : 48.0 KHz
Bit depth                                : 16 bits
Compression mode                         : Lossy
Stream size                              : 365 MiB (24%)
Alignment                                : Split accross interleaves
Interleave, duration                     : 42 ms (1.00 video frame)
Interleave, preload duration             : 500 ms

Скриншоты



Создавать темы 26-Мар-2015 16:36

[Профиль]  [ЛС] 

Shera_best

Стаж: 3 года 8 месяцев

Сообщений: 40

Симпатии: 12

трейлер заинтересовывает, посмотрим фильм.

Создавать темы 27-Мар-2015 19:03

[Профиль]  [ЛС] 

manutd27

Стаж: 2 года 5 месяцев

Сообщений: 36

Симпатии: 24

первый раз вижу программиста с навыками диверсанта
чак норрис нервно курит

Создавать темы 29-Мар-2015 18:36

[Профиль]  [ЛС] 

axeman

Стаж: 4 года 9 месяцев

Сообщений: 380

Симпатии: 50

Ну че качество смотреть можно ?

Создавать темы 30-Мар-2015 11:42

[Профиль]  [ЛС] 

manutd27

Стаж: 2 года 5 месяцев

Сообщений: 36

Симпатии: 24

928202Ну че качество смотреть можно ?
можно. концовка тв3 попахивает

Создавать темы 30-Мар-2015 12:04

[Профиль]  [ЛС] 

Shera_best

Стаж: 3 года 8 месяцев

Сообщений: 40

Симпатии: 12

один раз можно посмотреть. режиссеру надо было террориста по серьезней сделать, обычно хакеров так просто не найти.

Создавать темы 30-Мар-2015 20:24

[Профиль]  [ЛС] 

Mrblack

Стаж: 6 лет 3 месяца

Сообщений: 247

Симпатии: 52

Фильм не понравился.
Так надеялся увидеть качественный фильмец про кибер преступность, но тут режиссер даже не знакомился с этим направлением. В фильме действительно фэйлов ну очень много, причем они даже не технические.
Не стоит смотреть тем кто хоть как то связан с компьютерами, будете плеваться =)

Создавать темы 14-Апр-2015 12:54

[Профиль]  [ЛС] 

alcor

Стаж: 2 года 4 месяца

Сообщений: 45

Симпатии: 8

да фильм хреновый вооще я в жизни не видел хаккера со спортивной внешностью и еще с качествами наемника который умеет убить человека он не хаккер а скорее всего шпион последнее время эти голливудские режиссеры либо сошли сума либо у них нет серезных сценаристов

Создавать темы 08-Май-2015 17:49

[Профиль]  [ЛС] 

Davron1402

Стаж: 3 года 7 месяцев

Сообщений: 136

Симпатии: 122

да фильм хреновый вооще я в жизни не видел хаккера со спортивной внешностью и еще с качествами наемника который умеет убить человека он не хаккер а скорее всего шпион последнее время эти голливудские режиссеры либо сошли сума либо у них нет серезных сценаристов
прочитайте название кино "Кибер " не Хакер кибер должен бить спортивной внешностью, наемник, хаккер и умни.

Создавать темы 08-Май-2015 18:42

[Профиль]  [ЛС] 

DoDiK_DoDa

Стаж: 5 лет 1 месяц

Сообщений: 35

Симпатии: 36

935136да фильм хреновый вооще я в жизни не видел хаккера со спортивной внешностью и еще с качествами наемника который умеет убить человека он не хаккер а скорее всего шпион последнее время эти голливудские режиссеры либо сошли сума либо у них нет серезных сценаристов
вот насчет этого поспорил бы! такие есть и существуют. по крайней мере хотя бы один!

Создавать темы 08-Май-2015 19:14

[Профиль]  [ЛС] 

alcor

Стаж: 2 года 4 месяца

Сообщений: 45

Симпатии: 8

где же такой

Создавать темы 10-Май-2015 20:59

[Профиль]  [ЛС] 

FIS

Стаж: 6 лет 9 месяцев

Сообщений: 13

Симпатии: 4

Бюджет: $70 000 000
Сборы в мире: $17 752 940
Очень интересно.

Создавать темы 11-Май-2015 21:01

[Профиль]  [ЛС] 
Показать сообщения:    
Ответить на тему

Текущее время: 19-Авг 16:25

Часовой пояс: UTC + 5



Вы не можете начинать темы
Вы не можете отвечать на сообщения
Вы не можете редактировать свои сообщения
Вы не можете удалять свои сообщения
Вы не можете голосовать в опросах
Вы не можете прикреплять файлы к сообщениям
Вы не можете скачивать файлы