Снежная королева (Лев Атаманов) [1957г., Мультфильм, DVDRip | Реставрация]

Ответить на тему
 

bbk ®

Стаж: 6 лет 10 месяцев

Сообщений: 435

Симпатии: 479

Снежная королева Год выпуска: 1957
Страна: СССР
Жанр: мультфильм
Продолжительность: 01:00:34
Перевод: не требуется
Режиссер: Лев Атаманов
В ролях: Владимир Грибков (Оле Лукое), Мария Бабанова (Снежная Королева), Янина Жеймо (Герда), Сергей Мартинсон (Ворон), Анна Комолова (Кай), Галина Кожакина (маленькая разбойница), Варвара Попова (Бабушка), Алексей Консовский (Олень), Ирина Мурзаева (Старая фея), Елена Понсова (Ворона), Т. Линник (Принцесса), Мария Синельникова (Финка), Вера Бендина (Принц), Юдифь Глизер (старая разбойница и лапландка)
Описание: В один из морозных зимних вечеров, когда сквозь расписанные причудливым узором окна уютных, теплых домов прокрадывается темнота, а во дворе тревожно завывает вьюга, Снежная королева умчала маленького Кая в свои ледяные владения и превратила его доброе отзывчивое сердце в осколок льдинки. Через множество испытаний пришлось пройти верной Герде, чтобы добраться до чертогов Снежной королевы и спасти мальчика, освободить его из ледового плена, где царят душевный холод и безразличие.
 
Качество: DVDRip
Формат: AVI
Видео: XviD, 720x544 (4:3), 25.000 fps, 2 338 Kbps (0.239 bit/pixel)
Аудио: AC-3, 48.0 KHz, 6 ch, 448 Kbps, CBR

MI

General
    Complete name : Snezhnaja.koroleva.1957.XviD.DVDRip.avi
    Format : AVI
    Format/Info : Audio Video Interleave
    File size : 1.18 GiB
    Duration : 1h 0mn
    Overall bit rate : 2 796 Kbps
    Writing application : VirtualDubMod 1.5.10.2 (build 2540/release)
    Writing library : VirtualDubMod build 2540/release
  Video #0
    ID : 0
    Format : MPEG-4 Visual
    Format profile : Advanced [email protected]
    Format settings, BVOP : 2
    Format settings, QPel : No
    Format settings, GMC : No warppoints
    Format settings, Matrix : Default (MPEG)
    Codec ID : XVID
    Codec ID/Hint : XviD
    Duration : 1h 0mn
    Bit rate : 2 338 Kbps
    Width : 720 pixels
    Height : 544 pixels
    Display aspect ratio : 4:3
    Frame rate : 25.000 fps
    Color space : YUV
    Chroma subsampling : 4:2:0
    Bit depth : 8 bits
    Scan type : Progressive
    Compression mode : Lossy
    Bits/(Pixel*Frame) : 0.239
    Stream size : 1 013 MiB (84%)
    Writing library : XviD 1.2.1 (UTC 2008-12-04)
  Audio #1
    ID : 1
    Format : AC-3
    Format/Info : Audio Coding 3
    Mode extension : CM (complete main)
    Format settings, Endianness : Big
    Codec ID : 2000
    Duration : 1h 0mn
    Bit rate mode : Constant
    Bit rate : 448 Kbps
    Channel(s) : 6 channels
    Channel positions : Front: L C R, Side: L R, LFE
    Sampling rate : 48.0 KHz
    Bit depth : 16 bits
    Compression mode : Lossy
    Delay relative to video : 250ms
    Stream size : 194 MiB (16%)
    Alignment : Split accross interleaves
    Interleave, duration : 40 ms (1.00 video frame)
    Interleave, preload duration : 500 ms

Скриншоты

Создавать темы 27-Мар-2015 18:47

[Профиль]  [ЛС] 
Показать сообщения:    
Ответить на тему

Текущее время: 20-Сен 10:37

Часовой пояс: UTC + 5



Вы не можете начинать темы
Вы не можете отвечать на сообщения
Вы не можете редактировать свои сообщения
Вы не можете удалять свои сообщения
Вы не можете голосовать в опросах
Вы не можете прикреплять файлы к сообщениям
Вы не можете скачивать файлы