Зильс-Мария / Clouds of Sils Maria (Оливье Ассайас) [2014, Франция, Швейцария, Германия, драма, DVDRip] (Dub)

Ответить на тему
 

Davron1402 ®

Стаж: 3 года 10 месяцев

Сообщений: 136

Симпатии: 122

Зильс-Мария / Clouds of Sils Maria- Страна: Франция, Швейцария, Германия
Жанр: драма
Год выпуска: 2014
Продолжительность: 02:03:31
Перевод: Профессиональный (дублированный)
Cубтитры: нет
Режиссер: Оливье Ассайас
В ролях: Жюльет Бинош
Кристен Стюарт
Хлоя Грейс Морец
Ларс Эйдингер
Джонни Флинн
Ангела Винклер
Ханнс Цишлер
Нора фон Вальдштеттен
Брэйди Корбет
Алёша Стэйделманн
Описание: В восемнадцать лет Мария Эндерс с успехом дебютировала в пьесе MalojaSnake. Она исполнила роль Сигрид, амбициозной девушки с непреодолимым обаянием, которая сначала очаровала, а потом довела до самоубийства взрослую женщину по имени Элена. Эта роль изменила ее жизнь. Более двадцати лет спустя, на пике славы, Марию приглашают в Цюрих на церемонию вручения престижной награды от имени автора и режиссера, которому она обязана своим ранним признанием, Вильгельма Мельхиора, живущего ныне отшельником в швейцарской деревне Зильс Мария. Но неожиданная смерть последнего за несколько часов до церемонии погружает Марию Эндерс в круговорот времени, прошлое, которое никогда не спит, возвращается…
Доп. информация:
Сценарий: Оливье Ассайас
Продюсер: Шарль Жилибер, Сильви Барте, Карл Баумгартнер, ...
Оператор: Йорик Ле Со
Художник: Франсуа-Рено Лабарт, Габриэлла Аусонио, Юрген Дёринг
Монтаж: Марион Моннье-Качество видео: DVDRip
Формат видео: mp4 (MPEG-4)
Видео: AVC, 720 x 304 (2.35:1), 24.000 fps, 773 Kbps
Аудио: AAC, 48.0 KHz, 2 channels, 128 Kbps- IMDb: 6.80
Награды:
Каннский кинофестиваль, 2014 год
Золотая пальмовая ветвь Сезар, 2015 год
Лучшая актриса второго плана (Кристен Стюарт)
Лучший фильм
Лучшая актриса (Жюльет Бинош)
Лучший режиссер (Оливье Ассайас)
Лучший сценарий
Лучшая работа оператора

MediaInfo

Расположение: D:\KINO\Зильс-Мария.mp4
Имя файла: Зильс-Мария.mp4
Формат файла: .mp4 (MPEG-4)
Размер файла: 800.50 MB
Длительность: 2h 3mn
Навигация по главам: Нет
Bitrate (все потоки): 906 Kbps
Файл создан...: UTC 2015-03-22 05:20:15
Название: Зильс-Мария
Тип потока: Видео
Длительность: 02:03:31
Кодек: AVC
Кодек/Профиль: [email protected]
Кодек/ID: avc1
Кодек/CABAC: No
Кодек/ReFrames: 1 frame
Размеры изображения: 720 x 304 (2.35:1)
Частота кадров: 24.000 fps
Размер потока: 683 MiB (85%)
Битрейт: 773 Kbps
Библиотека кодирования: Pж)Ё#|фщ
Цветовое пространство: YUV
Тип развёртки: Progressive
Глубина: 8 bits
Тип потока: Звук #1
Язык: English
Длительность: 02:03:31.008
Кодек: AAC
Кодек/Профиль: LC
Кодек/ID: 40
Частота дискретизации: 48.0 KHz
Каналов: 2 channels
Битрейт: 128 Kbps
Битрейт/тип: Constant
Размер потока: 113 MiB (14%)
Метод сжатия: Lossy

Скриншоты





Последний раз редактировалось: Davron1402 (2015-03-28 14:17), всего редактировалось 1 раз

Создавать темы 28-Мар-2015 00:16

[Профиль]  [ЛС] 

Tolik4523

Стаж: 5 лет 10 месяцев

Сообщений: 271

Симпатии: 27

Ну надо же "Убивашка" подросла!

Создавать темы 28-Мар-2015 11:05

[Профиль]  [ЛС] 
Показать сообщения:    
Ответить на тему

Текущее время: 18-Ноя 17:20

Часовой пояс: UTC + 5



Вы не можете начинать темы
Вы не можете отвечать на сообщения
Вы не можете редактировать свои сообщения
Вы не можете удалять свои сообщения
Вы не можете голосовать в опросах
Вы не можете прикреплять файлы к сообщениям
Вы не можете скачивать файлы