Одно большое счастье / One Big Happy / Сезон: 1 / Серии: 1-6 из 6 (Кэти Гарретсон) [2015, комедия, HDTV] (DVO : Jetvis Studio & RG.paravozik) (Original)

Ответить на тему
 

Sunnat1999 ®

Стаж: 4 года 5 месяцев

Сообщений: 756

Симпатии: 416

-Одно большое счастье / One Big HappyСезон-1 Серии: 1-6 из 6- Год выпуска: 2015
Страна: США
Жанр: комедия
Продолжительность: ~ 00:22 серия-Перевод: Любительский двухголосый закадровый [Jetvis Studio & RG.paravozik]
Русские субтитры: нет
Режиссёр: Кэти Гарретсон-В ролях: Келли Брук, Элиша Катберт, Крис Уильямс, Том Страл, Мисан Акуйя, Бриана Бэрран, Элизабет Хирш-Тобер, Брук Лайонс, Мисти Монро, Эдвин Хэбакон-Описание: История о том, как лесбиянка и ее друг традиционной ориентации решили завести ребенка.-Доп. информация:
 
-Качество: HDTV
Формат: AVI
Видео кодек: XviD
Аудио кодек: AC3
Видео: XviD, 1200 kb/s, 720x400
Аудио: Russian: AC3, 192 kb/s (2 ch)
Аудио 2: English: AC3, 192 kb/s (2 ch)
Субтитры: нет

MediaInfo

Общее
Полное имя : One.Big.Happy.S01.Jetvis.Studio\One.Big.Happy.S01E01.Jetvis.Studio.avi
Формат : AVI
Формат/Информация : Audio Video Interleave
Размер файла : 253 Мбайт
Продолжительность : 22 м.
Общий поток : 1600 Кбит/сек
Программа кодирования : XviD4PSP 6.0 / 53.6.0
Видео
Идентификатор : 2
Формат : MPEG-4 Visual
Профиль формата : [email protected]
Параметр BVOP формата : Нет
Параметр QPel формата : Нет
Параметр GMC формата : Без точки перехода
Параметр матрицы формата : Default (H.263)
Идентификатор кодека : XVID
Идентификатор кодека/Подсказка : XviD
Продолжительность : 22 м.
Битрейт : 1200 Кбит/сек
Ширина : 720 пикселей
Высота : 400 пикселей
Соотношение сторон : 16:9
Частота кадров : 23,976 кадра/сек
Цветовое пространство : YUV
Субдискретизация насыщенности : 4:2:0
Битовая глубина : 8 бит
Тип развёртки : Прогрессивная
Метод сжатия : С потерями
Бит/(Пиксели*Кадры) : 0.174
Размер потока : 190 Мбайт (75%)
Библиотека кодирования : XviD 64
Аудио #1
Идентификатор : 0
Формат : AC-3
Формат/Информация : Audio Coding 3
Расширение режима : CM (complete main)
Параметр Endianness формата : Big
Идентификатор кодека : 2000
Продолжительность : 22 м.
Вид битрейта : Постоянный
Битрейт : 192 Кбит/сек
Каналы : 2 канала
Расположение каналов : Front: L R
Частота : 48,0 КГц
Битовая глубина : 16 бит
Метод сжатия : С потерями
Размер потока : 30,4 Мбайт (12%)
Выравнивание : Соединение по промежуткам
Продолжительность промежутка : 42 мс. (1,00 видеокадр)
Заголовок : Jetvis Studio
Аудио #2
Идентификатор : 1
Формат : AC-3
Формат/Информация : Audio Coding 3
Расширение режима : CM (complete main)
Параметр Endianness формата : Big
Идентификатор кодека : 2000
Продолжительность : 22 м.
Вид битрейта : Постоянный
Битрейт : 192 Кбит/сек
Каналы : 2 канала
Расположение каналов : Front: L R
Частота : 48,0 КГц
Битовая глубина : 16 бит
Метод сжатия : С потерями
Размер потока : 30,4 Мбайт (12%)
Выравнивание : Соединение по промежуткам
Продолжительность промежутка : 42 мс. (1,00 видеокадр)
Скриншоты:


Последний раз редактировалось: Sunnat1999 (2015-05-04 20:41), всего редактировалось 7 раз(а)

Создавать темы 28-Мар-2015 07:28

[Профиль]  [ЛС] 

Sunnat1999 ®

Стаж: 4 года 5 месяцев

Сообщений: 756

Симпатии: 416

ДОБАВЛЕНА 3 СЕРИЯ, ОБНОВИТЕ ПОЖАЛУЙСТА ТОРРЕНТ !

Создавать темы 03-Апр-2015 10:04

[Профиль]  [ЛС] 

Sunnat1999 ®

Стаж: 4 года 5 месяцев

Сообщений: 756

Симпатии: 416

ДОБАВЛЕНА 4 СЕРИЯ, ОБНОВИТЕ ПОЖАЛУЙСТА ТОРРЕНТ !

Создавать темы 20-Апр-2015 08:15

[Профиль]  [ЛС] 

Sunnat1999 ®

Стаж: 4 года 5 месяцев

Сообщений: 756

Симпатии: 416

ДОБАВЛЕНА 5 СЕРИЯ, ОБНОВИТЕ ПОЖАЛУЙСТА ТОРРЕНТ !

Создавать темы 24-Апр-2015 17:11

[Профиль]  [ЛС] 

Sunnat1999 ®

Стаж: 4 года 5 месяцев

Сообщений: 756

Симпатии: 416

ДОБАВЛЕНА 6-я, ЗАКЛЮЧИТЕЛЬНАЯ СЕРИЯ, ОБНОВИТЕ ПОЖАЛУЙСТА ТОРРЕНТ !

Создавать темы 02-Май-2015 07:26

[Профиль]  [ЛС] 
Показать сообщения:    
Ответить на тему

Текущее время: 18-Авг 00:31

Часовой пояс: UTC + 5



Вы не можете начинать темы
Вы не можете отвечать на сообщения
Вы не можете редактировать свои сообщения
Вы не можете удалять свои сообщения
Вы не можете голосовать в опросах
Вы не можете прикреплять файлы к сообщениям
Вы не можете скачивать файлы